(Classical) J.S.Bach: Italienisches Konzert BWV 971, Orchestersuite Nr.2 BWV 1067, Konzert BWV 1056, Flotenkonzert C-Dur u.a. (Magali Mosnier, Stuttgarter Kammerorchester - Michael Hofstetter) 2009, APE (image+.cue) lossless


Статистика раздачи [Обновить пиров]
Размер:  287 MB   |    Зарегистрирован:  10 месяцев 2 дня   |    Скачан:  0 раз

Полного источника не было: Никогда

 
   
 
 
 

[Цитировать]

Magali Mosnier - Johann Sebastian Bach
Жанр: Classical
Страна-производитель диска: EU
Год издания диска: 2009
Издатель (лейбл): Sony Classical
Номер по каталогу: 88697527002
Дата записи: 2009
Аудиокодек: APE
Тип рипа: image+.cue
Битрейт аудио: lossless
Продолжительность: 01:01:36
Источник: скачано с avaxhome
Наличие сканов в содержимом раздачи: да
Треклист:
Italienisches Konzert BWV 971
01 - I. Allegro 3:52
02 - II. Andante 4:09
03 - III. Presto 3:59
04 Siciliano g-Moll aus der Flötensonate Es-Dur BWV 1031 2:23
Orchestersuite Nr. 2 h-Moll BWV 1067
05 - Polonaise: Lentement - Double 3:27
06 - Badinerie 1:34
Konzert g-Moll BWV 1056
07 - I. Moderato 3:25
08 - II. Largo 2:51
09 - III. Presto 3:13
10 Sinfonia h-Moll aus der Kantate 'Non sa che sie dolore' BWV 209 6:23
Flötenkonzert C-Dur nach der Flötensonate BWV 1032
11 - I. Vivace 5:03
12 - II. Largo e dolce 3:03
13 - III. Allegro 4:15
14 'Bist Du bei mir' aus dem Notenbüchlein der Anna Magdalena Bach BWV 508 2:18
15 'Willst Du Dein Herz mir schenken?' aus dem Notenbüchlein der Anna Magdalena ... 1:32
16 'Nur ein Wink von seinen Händen' aus der 6. Kantate des Weihnachtsoratoriums ... 3:28
17 'Erbarme Dich' aus der Matthäuspassion BWV 244 6:40
Исполнители:
Magali Mosnier, flute
Stuttgarter Kammerorchester - Michael Hofstetter

Лог создания рипа

Exact Audio Copy V1.0 beta 3 from 29. August 2011
EAC extraction logfile from 23. April 2013, 12:24
Magali Mosnier, Stuttgarter Kammerorchester, Michael Hofstetter / Johann Sebastian Bach
Used drive : PIONEER BD-RW BDR-206 Adapter: 0 ID: 2
Read mode : Secure
Utilize accurate stream : Yes
Defeat audio cache : Yes
Make use of C2 pointers : No
Read offset correction : 667
Overread into Lead-In and Lead-Out : No
Fill up missing offset samples with silence : Yes
Delete leading and trailing silent blocks : No
Null samples used in CRC calculations : Yes
Used interface : Native Win32 interface for Win NT & 2000
Used output format : User Defined Encoder
Selected bitrate : 1024 kBit/s
Quality : High
Add ID3 tag : Yes
Command line compressor : C:\Program Files\FLAC\flac.exe
Additional command line options : -5 -T "Artist=%artist%" -T "Title=%title%" -T "Album=%albumtitle%" -T "Date=%year%" -T "Tracknumber=%tracknr%" -T "Genre=%genre%" %source% -o %dest%
TOC of the extracted CD
Track | Start | Length | Start sector | End sector
---------------------------------------------------------
1 | 0:00.00 | 3:52.01 | 0 | 17400
2 | 3:52.01 | 4:09.07 | 17401 | 36082
3 | 8:01.08 | 3:59.04 | 36083 | 54011
4 | 12:00.12 | 2:22.55 | 54012 | 64716
5 | 14:22.67 | 3:27.11 | 64717 | 80252
6 | 17:50.03 | 1:33.40 | 80253 | 87267
7 | 19:23.43 | 3:25.16 | 87268 | 102658
8 | 22:48.59 | 2:51.24 | 102659 | 115507
9 | 25:40.08 | 3:13.18 | 115508 | 130000
10 | 28:53.26 | 6:22.43 | 130001 | 158693
11 | 35:15.69 | 5:02.52 | 158694 | 181395
12 | 40:18.46 | 3:02.62 | 181396 | 195107
13 | 43:21.33 | 4:15.28 | 195108 | 214260
14 | 47:36.61 | 2:18.19 | 214261 | 224629
15 | 49:55.05 | 1:32.26 | 224630 | 231555
16 | 51:27.31 | 3:28.11 | 231556 | 247166
17 | 54:55.42 | 6:40.33 | 247167 | 277199
Range status and errors
Selected range
Filename F:\=== VINYL RIPS ===\=== EAC===\X FRESH RIP\Magali Mosnier, Stuttgarter Kammerorchester, Hofstetter - Johann Sebastian Bach.wav
Peak level 99.9 %
Extraction speed 7.8 X
Range quality 100.0 %
Test CRC AAE1A738
Copy CRC AAE1A738
Copy OK
No errors occurred
AccurateRip summary
Track 1 accurately ripped (confidence 6) [E15FF2FE] (AR v1)
Track 2 accurately ripped (confidence 6) [B97489A2] (AR v1)
Track 3 accurately ripped (confidence 6) [0DC59B1B] (AR v1)
Track 4 accurately ripped (confidence 6) [AD4526BE] (AR v1)
Track 5 accurately ripped (confidence 6) [7640BCEF] (AR v1)
Track 6 accurately ripped (confidence 6) [8EFAF2E6] (AR v1)
Track 7 accurately ripped (confidence 6) [1C160D8E] (AR v1)
Track 8 accurately ripped (confidence 6) [45C3B5B8] (AR v1)
Track 9 accurately ripped (confidence 6) [7E0E7B04] (AR v1)
Track 10 accurately ripped (confidence 6) [1C1A5EDF] (AR v1)
Track 11 accurately ripped (confidence 6) [BD8DF0D5] (AR v1)
Track 12 accurately ripped (confidence 6) [E7753093] (AR v1)
Track 13 accurately ripped (confidence 6) [CFCB51A1] (AR v1)
Track 14 accurately ripped (confidence 6) [4047E3EF] (AR v1)
Track 15 accurately ripped (confidence 6) [72B7017D] (AR v1)
Track 16 accurately ripped (confidence 6) [6738FE75] (AR v1)
Track 17 accurately ripped (confidence 6) [4D9915C3] (AR v1)
All tracks accurately ripped
End of status report
---- CUETools DB Plugin V2.1.3
[CTDB TOCID: E.TY367DLSa402978bjLQVPy3y8-] found, Submit result: E.TY367DLSa402978bjLQVPy3y8- has been confirmed
[48aadfb4] (1/1) Accurately ripped
==== Log checksum E3662453A2D9308B19798C8336E0FD6D8D8B8B1BA7390B336EC540CA073E94BF ====

Лог проверки качества

AUDIOCHECKER v2.0 beta (build 457) - by Dester - opdester@freemail.hu
~~~~~~~~~~~~~~~~~~~~~~~~~~~~~~~~~~
-=== DO NOT EDIT THIS FILE! ===-
Path: ...\Magali Mosnier, Hofstetter - Johann Sebastian Bach { 2009}
1 -=- Magali Mosnier, Stuttgarter Kammerorchester, Hofstetter - Johann Sebastian Bach.wav -=- CDDA (100%)
252490116
[teatrix.ru].t17837.torrent 
Торрент: Зарегистрирован [ 2016-03-17 00:49 ] · B7913125B4B15F081D175E66893760AC6236F32F

Скачать .torrent

Скачать

12 KB

Статус: проверено
Скачан: 0 раз
Размер: 287 MB
terms.php



Быстрый ответ

Имя:

      
Для отправки сообщений необходимо включить JavaScript
Показать сообщения:    

Текущее время: 19-Янв 16:04

Часовой пояс: UTC + 3


Вы можете начинать темы
Вы можете отвечать на сообщения
Вы не можете редактировать свои сообщения
Вы не можете удалять свои сообщения
Вы не можете голосовать в опросах
Вы не можете прикреплять файлы к сообщениям
Вы можете скачивать файлы