(Classical) Franz Schubert - Schwanengesang • Gretchen am Spinnrade • Die junge Nonne • Ellens Gesang III (Ave Maria) • Die Forelle • Wiegenlied (Hermann Prey, Leonard Hokanson; Gundula Janowitz, Irwin Gage) - 1997, FLAC (tracks+.cue) lossless


 

[Цитировать]

Franz Schubert | Франц Шуберт
(1797–1828)



SchwanengesangGretchen am SpinnradeDie junge Nonne
Ellens Gesang III (Ave Maria)Die ForelleWiegenlied



Hermann Prey baritoneLeonard Hokanson piano
Gundula Janowitz sopranoIrwin Gage piano


Жанр: Classical / Vocal
Даты записи: 1981, 1977, 1978
Формат записи: ADD/DDD, Stereo
Год издания диска: 1997
Издатель (лейбл): Deutsche Grammophon
Номер по каталогу: 453 678-2
Аудиокодек: FLAC
Тип рипа: tracks+.cue
Битрейт аудио: lossless
Продолжительность: 1:15:48
Наличие сканов в содержимом раздачи: только обложка
Источник: What.CD
Релизёр: ettore79

-Tracklist / Треклист
Schwanengesang, D. 957 - 54:09
Nr. 1. Liebesbotschaft (Rellstab) - 3:05
  • Nr. 2. Kriegers Ahnung (Rellstab) - 5:12
  • Nr. 3. Frühlingssehnsucht (Rellstab) - 3:58
  • Nr. 4. Ständchen (Rellstab) - 3:42
  • Nr. 5. Aufenthalt (Rellstab) - 2:57
  • Nr. 6. In der Ferne (Rellstab) - 6:22
  • Nr. 7. Abschied (Rellstab) - 4:15
  • Nr. 8. Der Atlas (Heine) - 2:15
  • Nr. 9. Ihr Bild (Heine) - 3:16
  • Nr. 10. Das Fischermädchen (Heine) - 2:21
  • Nr. 11. Die Stadt (Heine) - 3:31
  • Nr. 12. Am Meer (Heine) - 4:16
  • Nr. 13. Der Doppelgänger (Heine) - 4:49
  • Nr. 14. Die Taubenpost (Seidl) - 4:10
    Hermann Prey (baritone), Leonard Hokanson (piano)
    Recorded: 1981

    Gretchen am Spinnrade (Goethe), D. 118 - 4:02
  • Die junge Nonne (Craghier), D. 828 - 4:55
  • Ellens Gesang III («Ave Maria») (Scott / Storck), D. 839 - 7:46
  • Die Forelle (Schubart), D. 550 - 2:00
  • Wiegenlied (unknown), D. 498 - 2:56
    Gundula Janowitz (soprano), Irwin Gage (piano)
    Recorded: 1977 [17, 18], 1978 [15, 16, 19]
    -

    EAC log / Отчёт EAC

    Exact Audio Copy V1.0 beta 1 from 15. November 2010
    EAC extraction logfile from 21. December 2010, 16:34
    Hermann Prey, Gundula Janowizt / Schwanengesang D957, Gretchen Spinnrade D118, Junge Nonne D828, Forelle D550, Wiegenlied D498
    Used drive : TSSTcorpCDW/DVD TS-L462C Adapter: 1 ID: 0
    Read mode : Secure
    Utilize accurate stream : Yes
    Defeat audio cache : Yes
    Make use of C2 pointers : No
    Read offset correction : 6
    Overread into Lead-In and Lead-Out : No
    Fill up missing offset samples with silence : Yes
    Delete leading and trailing silent blocks : No
    Null samples used in CRC calculations : Yes
    Used interface : Native Win32 interface for Win NT & 2000
    Gap handling : Appended to previous track
    Used output format : User Defined Encoder
    Selected bitrate : 128 kBit/s
    Quality : High
    Add ID3 tag : No
    Command line compressor : C:\Program Files\FLAC\flac.exe
    Additional command line options : -V -8 -T "artist=%a" -T "title=%t" -T "album=%g" -T "date=%y" -T "tracknumber=%n" -T "genre=%m" %s
    TOC of the extracted CD
    Track | Start | Length | Start sector | End sector
    ---------------------------------------------------------
    1 | 0:00.00 | 3:05.00 | 0 | 13874
    2 | 3:05.00 | 5:12.00 | 13875 | 37274
    3 | 8:17.00 | 3:58.00 | 37275 | 55124
    4 | 12:15.00 | 3:42.00 | 55125 | 71774
    5 | 15:57.00 | 2:57.00 | 71775 | 85049
    6 | 18:54.00 | 6:22.00 | 85050 | 113699
    7 | 25:16.00 | 4:15.00 | 113700 | 132824
    8 | 29:31.00 | 2:15.00 | 132825 | 142949
    9 | 31:46.00 | 3:16.00 | 142950 | 157649
    10 | 35:02.00 | 2:21.00 | 157650 | 168224
    11 | 37:23.00 | 3:31.00 | 168225 | 184049
    12 | 40:54.00 | 4:16.00 | 184050 | 203249
    13 | 45:10.00 | 4:49.00 | 203250 | 224924
    14 | 49:59.00 | 4:10.00 | 224925 | 243674
    15 | 54:09.00 | 4:02.00 | 243675 | 261824
    16 | 58:11.00 | 4:55.00 | 261825 | 283949
    17 | 63:06.00 | 7:46.00 | 283950 | 318899
    18 | 70:52.00 | 2:00.00 | 318900 | 327899
    19 | 72:52.00 | 2:56.00 | 327900 | 341099
    Track 1
    Filename F:\Schwanengesang D957, Gretchen Spinnrade D118, Junge Nonne D828, Forelle D550, Wiegenlied D498\01 - Schubert, Franz - Schwanengesang D957 Lieder nach Gedichten von - Ludwig Rellstab - 01. Liebesbotschaft.wav
    Pre-gap length 0:00:02.00
    Peak level 60.9 %
    Extraction speed 1.2 X
    Track quality 100.0 %
    Test CRC A674FD4C
    Copy CRC A674FD4C
    Accurately ripped (confidence 4) [06200E37]
    Copy OK
    Track 2
    Filename F:\Schwanengesang D957, Gretchen Spinnrade D118, Junge Nonne D828, Forelle D550, Wiegenlied D498\02 - Schubert, Franz - Schwanengesang D957 Lieder nach Gedichten von - Ludwig Rellstab - 02. Kriegers Ahnung.wav
    Peak level 99.2 %
    Extraction speed 1.4 X
    Track quality 100.0 %
    Test CRC 97E264FC
    Copy CRC 97E264FC
    Accurately ripped (confidence 4) [812890AA]
    Copy OK
    Track 3
    Filename F:\Schwanengesang D957, Gretchen Spinnrade D118, Junge Nonne D828, Forelle D550, Wiegenlied D498\03 - Schubert, Franz - Schwanengesang D957 Lieder nach Gedichten von - Ludwig Rellstab -03. Frühlingssehnsucht.wav
    Peak level 92.1 %
    Extraction speed 1.5 X
    Track quality 100.0 %
    Test CRC B612CF1C
    Copy CRC B612CF1C
    Accurately ripped (confidence 4) [8D806DC3]
    Copy OK
    Track 4
    Filename F:\Schwanengesang D957, Gretchen Spinnrade D118, Junge Nonne D828, Forelle D550, Wiegenlied D498\04 - Schubert, Franz - Schwanengesang D957 Lieder nach Gedichten von - Ludwig Rellstab - 04. Standchen.wav
    Peak level 71.6 %
    Extraction speed 1.6 X
    Track quality 100.0 %
    Test CRC 587C01FA
    Copy CRC 587C01FA
    Accurately ripped (confidence 4) [34522CEB]
    Copy OK
    Track 5
    Filename F:\Schwanengesang D957, Gretchen Spinnrade D118, Junge Nonne D828, Forelle D550, Wiegenlied D498\05 - Schubert, Franz - Schwanengesang D957 Lieder nach Gedichten von - Ludwig Rellstab - 05. Aufenthalt.wav
    Peak level 88.6 %
    Extraction speed 1.4 X
    Track quality 99.9 %
    Test CRC 40A9380E
    Copy CRC 40A9380E
    Accurately ripped (confidence 4) [F0CC6898]
    Copy OK
    Track 6
    Filename F:\Schwanengesang D957, Gretchen Spinnrade D118, Junge Nonne D828, Forelle D550, Wiegenlied D498\06 - Schubert, Franz - Schwanengesang D957 Lieder nach Gedichten von - Ludwig Rellstab - 06. In Der Ferne.wav
    Peak level 72.2 %
    Extraction speed 1.9 X
    Track quality 100.0 %
    Test CRC 111AB02F
    Copy CRC 111AB02F
    Accurately ripped (confidence 4) [9E13CB83]
    Copy OK
    Track 7
    Filename F:\Schwanengesang D957, Gretchen Spinnrade D118, Junge Nonne D828, Forelle D550, Wiegenlied D498\07 - Schubert, Franz - Schwanengesang D957 Lieder nach Gedichten von - Ludwig Rellstab - 07. Abschied.wav
    Peak level 73.3 %
    Extraction speed 1.7 X
    Track quality 99.9 %
    Test CRC 89661973
    Copy CRC 89661973
    Accurately ripped (confidence 4) [A5CACEDB]
    Copy OK
    Track 8
    Filename F:\Schwanengesang D957, Gretchen Spinnrade D118, Junge Nonne D828, Forelle D550, Wiegenlied D498\08 - Schubert, Franz - Schwanengesang D957 Lieder nach Gedichten von - Heinrich Heine - 08. Der Atlas.wav
    Peak level 89.1 %
    Extraction speed 1.8 X
    Track quality 100.0 %
    Test CRC D3793ACA
    Copy CRC D3793ACA
    Accurately ripped (confidence 4) [81714EFF]
    Copy OK
    Track 9
    Filename F:\Schwanengesang D957, Gretchen Spinnrade D118, Junge Nonne D828, Forelle D550, Wiegenlied D498\09 - Schubert, Franz - Schwanengesang D957 Lieder nach Gedichten von - Heinrich Heine - 09. Ihr Bild.wav
    Peak level 52.4 %
    Extraction speed 2.0 X
    Track quality 100.0 %
    Test CRC 0F1E1F84
    Copy CRC 0F1E1F84
    Accurately ripped (confidence 4) [37E58EEE]
    Copy OK
    Track 10
    Filename F:\Schwanengesang D957, Gretchen Spinnrade D118, Junge Nonne D828, Forelle D550, Wiegenlied D498\10 - Schubert, Franz - Schwanengesang D957 Lieder nach Gedichten von - Heinrich Heine - 10. Das Fischermadchen.wav
    Peak level 48.7 %
    Extraction speed 1.9 X
    Track quality 100.0 %
    Test CRC 42E627EE
    Copy CRC 42E627EE
    Accurately ripped (confidence 4) [82EE14DC]
    Copy OK
    Track 11
    Filename F:\Schwanengesang D957, Gretchen Spinnrade D118, Junge Nonne D828, Forelle D550, Wiegenlied D498\11 - Schubert, Franz - Schwanengesang D957 Lieder nach Gedichten von - Heinrich Heine - 11. Die Stadt.wav
    Peak level 77.5 %
    Extraction speed 2.1 X
    Track quality 100.0 %
    Test CRC 74C3D7F0
    Copy CRC 74C3D7F0
    Accurately ripped (confidence 3) [64FFC480]
    Copy OK
    Track 12
    Filename F:\Schwanengesang D957, Gretchen Spinnrade D118, Junge Nonne D828, Forelle D550, Wiegenlied D498\12 - Schubert, Franz - Schwanengesang D957 Lieder nach Gedichten von - Heinrich Heine - 12. Am Meer.wav
    Peak level 65.8 %
    Extraction speed 2.0 X
    Track quality 99.9 %
    Test CRC 1BD0E3D6
    Copy CRC 1BD0E3D6
    Accurately ripped (confidence 4) [16CD9FB2]
    Copy OK
    Track 13
    Filename F:\Schwanengesang D957, Gretchen Spinnrade D118, Junge Nonne D828, Forelle D550, Wiegenlied D498\13 - Schubert, Franz - Schwanengesang D957 Lieder nach Gedichten von - Heinrich Heine - 13. Der Goppelganger.wav
    Peak level 84.7 %
    Extraction speed 2.3 X
    Track quality 100.0 %
    Test CRC C5234425
    Copy CRC C5234425
    Accurately ripped (confidence 4) [4C228695]
    Copy OK
    Track 14
    Filename F:\Schwanengesang D957, Gretchen Spinnrade D118, Junge Nonne D828, Forelle D550, Wiegenlied D498\14 - Schubert, Franz - Schwanengesang D957 Lieder nach Gedichten von - Johann Gabriel - 14. Die Taubenpost.wav
    Peak level 45.5 %
    Extraction speed 2.4 X
    Track quality 100.0 %
    Test CRC 48AFDC66
    Copy CRC 48AFDC66
    Accurately ripped (confidence 4) [76F86DB2]
    Copy OK
    Track 15
    Filename F:\Schwanengesang D957, Gretchen Spinnrade D118, Junge Nonne D828, Forelle D550, Wiegenlied D498\15 - Schubert, Franz - Gretchen am Spinnrade D118.wav
    Pre-gap length 0:00:07.00
    Peak level 99.5 %
    Extraction speed 2.4 X
    Track quality 100.0 %
    Test CRC 435B575F
    Copy CRC 435B575F
    Accurately ripped (confidence 3) [7AABB169]
    Copy OK
    Track 16
    Filename F:\Schwanengesang D957, Gretchen Spinnrade D118, Junge Nonne D828, Forelle D550, Wiegenlied D498\16 - Schubert, Franz - Die junge Nonne D828.wav
    Peak level 90.9 %
    Extraction speed 2.5 X
    Track quality 100.0 %
    Test CRC 126942A0
    Copy CRC 126942A0
    Accurately ripped (confidence 4) [E10EA4C0]
    Copy OK
    Track 17
    Filename F:\Schwanengesang D957, Gretchen Spinnrade D118, Junge Nonne D828, Forelle D550, Wiegenlied D498\17 - Schubert, Franz - Ellens Gesang III D839.wav
    Peak level 54.4 %
    Extraction speed 2.8 X
    Track quality 100.0 %
    Test CRC 9BAE910F
    Copy CRC 9BAE910F
    Accurately ripped (confidence 4) [B89B43DE]
    Copy OK
    Track 18
    Filename F:\Schwanengesang D957, Gretchen Spinnrade D118, Junge Nonne D828, Forelle D550, Wiegenlied D498\18 - Schubert, Franz - Die Forelle D550.wav
    Peak level 70.1 %
    Extraction speed 2.3 X
    Track quality 100.0 %
    Test CRC 447D8827
    Copy CRC 447D8827
    Accurately ripped (confidence 3) [20ADB797]
    Copy OK
    Track 19
    Filename F:\Schwanengesang D957, Gretchen Spinnrade D118, Junge Nonne D828, Forelle D550, Wiegenlied D498\19 - Schubert, Franz - Wiegenlied D498.wav
    Peak level 44.6 %
    Extraction speed 2.1 X
    Track quality 99.9 %
    Test CRC 08CFEC04
    Copy CRC 08CFEC04
    Accurately ripped (confidence 3) [754458FF]
    Copy OK
    All tracks accurately ripped
    No errors occurred
    End of status report
    ==== Log checksum 06A3E7D4FBF5FF93596C94951ED0E819BB86815F2C8F070FAFA74EC5B5FCE624 ====

    auCDtect Task Manager log / Отчёт auCDtect Task Manager

    -----------------------
    DON'T MODIFY THIS FILE
    -----------------------
    PERFORMER: auCDtect Task Manager, ver. 1.5.1RC3 build 1.5.1.4
    Copyright (c) 2008-2010 y-soft. All rights reserved
    ANALYZER: auCDtect: CD records authenticity detector, version 0.8.2
    Copyright (c) 2004 Oleg Berngardt. All rights reserved.
    Copyright (c) 2004 Alexander Djourik. All rights reserved.
    FILE: 11 - Schwanengesang, D. 957 - Nr. 11. Die Stadt (Heine).flac
    Size: 14295480 Hash: CEDD8CD93523C8F6D9F54DC433E233A9 Accuracy: -m0
    Conclusion: CDDA 86%
    Signature: D76AEC747D14D2AFF9F442A4240316A3D17A9293
    FILE: 10 - Schwanengesang, D. 957 - Nr. 10. Das Fischermaedchen (Heine).flac
    Size: 9592529 Hash: AC71931EE2226DE09E42E5F83253E4C7 Accuracy: -m0
    Conclusion: CDDA 92%
    Signature: 4AAE57E427D647670B84B550EAE0FD06F4717CCF
    FILE: 09 - Schwanengesang, D. 957 - Nr. 9. Ihr Bild (Heine).flac
    Size: 12879762 Hash: 3402F3F53C8E4B7A5D94FDA273AEB7B1 Accuracy: -m0
    Conclusion: CDDA 85%
    Signature: 2DFD6D44346F2E66735ED144B9BAC4824D94E09A
    FILE: 08 - Schwanengesang, D. 957 - Nr. 8. Der Atlas (Heine).flac
    Size: 11003872 Hash: 1992B467074AA62B3E2496FBEA357519 Accuracy: -m0
    Conclusion: CDDA 100%
    Signature: 8B782C3F763F949EA2583937C0A946DA010F3CBF
    FILE: 07 - Schwanengesang, D. 957 - Nr. 7. Abschied (Rellstab).flac
    Size: 18400612 Hash: 19ACB62D3A8B02B081424A635C038909 Accuracy: -m0
    Conclusion: CDDA 94%
    Signature: 390DB0B4126833F80AA32C7514BBA8FC0D292389
    FILE: 06 - Schwanengesang, D. 957 - Nr. 6. In der Ferne (Rellstab).flac
    Size: 26180011 Hash: 2ACA9E8D03B6D4574BAE35E54BBB73CF Accuracy: -m0
    Conclusion: CDDA 62%
    Signature: 28D72D333FF94E42A02A8D331C5C3F903FA49610
    FILE: 05 - Schwanengesang, D. 957 - Nr. 5. Aufenthalt (Rellstab).flac
    Size: 13583134 Hash: EA6A5A75FBEA59EAFD7A1167A7E28069 Accuracy: -m0
    Conclusion: CDDA 87%
    Signature: B865E37D61908BF58B2E8AD78936C935F9AD3A03
    FILE: 04 - Schwanengesang, D. 957 - Nr. 4. Staendchen (Rellstab).flac
    Size: 14571365 Hash: 9421A30BE600FC230C5D86B8916F84E6 Accuracy: -m0
    Conclusion: CDDA 58%
    Signature: 0875C76850BC6F38BADDB9C45A287ED2AB46CD46
    FILE: 03 - Schwanengesang, D. 957 - Nr. 3. Fruehlingssehnsucht (Rellstab).flac
    Size: 17372065 Hash: 2F6F99F600C96A0DCCE52ADB0C32D028 Accuracy: -m0
    Conclusion: CDDA 62%
    Signature: C9042A249CACD867DC671B2FAFA09754FA0E5703
    FILE: 02 - Schwanengesang, D. 957 - Nr. 2. Kriegers Ahnung (Rellstab).flac
    Size: 21302577 Hash: 88872CC8E520EDE61374A6BD4B65AE71 Accuracy: -m0
    Conclusion: CDDA 49%
    Signature: 17AB6722B5CA518A9156B0D36F3CC1C4D400E72A
    FILE: 01 - Schwanengesang, D. 957 - Nr. 1. Liebesbotschaft (Rellstab).flac
    Size: 12020741 Hash: 205B92609D5EEA03ACCB781E8F76642A Accuracy: -m0
    Conclusion: CDDA 92%
    Signature: 174A742B486291BE17F66AAB977621258A9C8C0F
    FILE: 19 - Wiegenlied (unknown), D. 498.flac
    Size: 10802549 Hash: 290D860C2940900660106A25891A6F47 Accuracy: -m0
    Conclusion: CDDA 100%
    Signature: F7718B65E08F1E5C12FB58928D4517A616BD5FC6
    FILE: 18 - Die Forelle (Schubart), D. 550.flac
    Size: 8751440 Hash: 5E413E125604536FCF742663A79BB37F Accuracy: -m0
    Conclusion: CDDA 100%
    Signature: 3EBDFF822C126B4B8843C8B14FE980089721E4AE
    FILE: 17 - Ellens Gesang III (''Ave Maria'') (Scott - Storck), D. 839.flac
    Size: 27812095 Hash: 563905D0EB6127D02E550F2DEE351F32 Accuracy: -m0
    Conclusion: CDDA 100%
    Signature: DBD61A54FA96AC4B379C61430AEE31A4F799FFF5
    FILE: 16 - Die junge Nonne (Craghier), D. 828.flac
    Size: 20664340 Hash: 16C13B030A02A6FDB794E06A60BEA6F4 Accuracy: -m0
    Conclusion: CDDA 100%
    Signature: 343F50B6337A2E4BE2FF467F633D6920B92E8BF8
    FILE: 15 - Gretchen am Spinnrade (Goethe), D. 118.flac
    Size: 17736686 Hash: D2502A7A2EC280B85D041AFA4D6FAE4A Accuracy: -m0
    Conclusion: CDDA 100%
    Signature: E0C1C6D1603992CD8455F346E37C65230831FAAF
    FILE: 14 - Schwanengesang, D. 957 - Nr. 14. Die Taubenpost (Seidl).flac
    Size: 17439155 Hash: 16057961C79B217AB577300363840FFA Accuracy: -m0
    Conclusion: CDDA 100%
    Signature: 903817156B17EE0953EE05B3B5CA980B49FC0701
    FILE: 13 - Schwanengesang, D. 957 - Nr. 13. Der Doppelgaenger (Heine).flac
    Size: 19874093 Hash: BEE18B7F04C6AD967626A64F82B9B94E Accuracy: -m0
    Conclusion: CDDA 100%
    Signature: 0146B7B31BA88ABFE943DB128B6AD7B1160D24FA
    FILE: 12 - Schwanengesang, D. 957 - Nr. 12. Am Meer (Heine).flac
    Size: 17367344 Hash: C357239B17EB86AB8F33ECFC693C6155 Accuracy: -m0
    Conclusion: CDDA 94%
    Signature: 09B0124CCD7ECBCFE92BB6C2484FDE99774D560D

    CUETools log / Отчёт CUETools

    [CUETools log; Date: 12.11.2013 22:03:14; Version: 2.1.4]
    [AccurateRip ID: 00336459-02d13453-1d11c413] found.
    Track [ CRC | V2 ] Status
    01 [06200e37|84c16b74] (4+0/4) Accurately ripped
    02 [812890aa|4e7a36eb] (4+0/4) Accurately ripped
    03 [8d806dc3|2bcfc231] (4+0/4) Accurately ripped
    04 [34522ceb|4803d0a9] (4+0/4) Accurately ripped
    05 [f0cc6898|1bccee32] (4+0/4) Accurately ripped
    06 [9e13cb83|7a6acd16] (4+0/4) Accurately ripped
    07 [a5cacedb|3538d913] (4+0/4) Accurately ripped
    08 [81714eff|f447b2e9] (4+0/4) Accurately ripped
    09 [37e58eee|430b5de6] (4+0/4) Accurately ripped
    10 [82ee14dc|40ae960d] (4+0/4) Accurately ripped
    11 [64ffc480|64aef94f] (3+0/3) Accurately ripped
    12 [16cd9fb2|7f43a9c6] (4+0/4) Accurately ripped
    13 [4c228695|f3fa6ec0] (4+0/4) Accurately ripped
    14 [76f86db2|bf54aa87] (4+0/4) Accurately ripped
    15 [7aabb169|d32b8745] (3+0/3) Accurately ripped
    16 [e10ea4c0|427a45f6] (4+0/4) Accurately ripped
    17 [b89b43de|4443f32c] (4+0/4) Accurately ripped
    18 [20adb797|745967c7] (3+0/3) Accurately ripped
    19 [754458ff|9e83ec5d] (3+0/3) Accurately ripped
    Track Peak [ CRC32 ] [W/O NULL] [ LOG ]
    -- 99,5 [7D66A972] [72573829]
    01 60,9 [A674FD4C] [E355653B] CRC32
    02 99,2 [97E264FC] [B0A185E9] CRC32
    03 92,1 [B612CF1C] [2F2EFFD1] CRC32
    04 71,6 [587C01FA] [1A995499] CRC32
    05 88,6 [40A9380E] [0B434423] CRC32
    06 72,2 [111AB02F] [AA662F71] CRC32
    07 73,3 [89661973] [D041ABEF] CRC32
    08 89,1 [D3793ACA] [247BC12D] CRC32
    09 52,4 [0F1E1F84] [650736A6] CRC32
    10 48,7 [42E627EE] [5B3E92A4] CRC32
    11 77,5 [74C3D7F0] [5CDD6B22] CRC32
    12 65,8 [1BD0E3D6] [AF02F621] CRC32
    13 84,7 [C5234425] [064AECBD] CRC32
    14 45,5 [48AFDC66] [ED27FFDA] CRC32
    15 99,5 [435B575F] [C2A7CC8A] CRC32
    16 90,9 [126942A0] [FDFBCE31] CRC32
    17 54,4 [9BAE910F] [69567AB4] CRC32
    18 70,1 [447D8827] [F54340D0] CRC32
    19 44,6 [08CFEC04] [1372DB3C] CRC32

    CUE sheet

    TITLE "Franz Schubert: Schwanengesang • Lieder"
    PERFORMER "Hermann Prey, Gundula Janowitz"
    REM GENRE Classical
    REM DISCID 1D11C413
    REM COMMENT "ExactAudioCopy v1.0b1"
    FILE "01 - Schwanengesang, D. 957 - Nr. 1. Liebesbotschaft (Rellstab).flac" WAVE
    TRACK 01 AUDIO
    TITLE "Schwanengesang, D. 957: Nr. 1. Liebesbotschaft (Rellstab)"
    PERFORMER "Hermann Prey (baritone), Leonard Hokanson (piano)"
    REM DATE 1981
    INDEX 01 00:00:00
    FILE "02 - Schwanengesang, D. 957 - Nr. 2. Kriegers Ahnung (Rellstab).flac" WAVE
    TRACK 02 AUDIO
    TITLE "Schwanengesang, D. 957: Nr. 2. Kriegers Ahnung (Rellstab)"
    PERFORMER "Hermann Prey (baritone), Leonard Hokanson (piano)"
    REM DATE 1981
    INDEX 01 00:00:00
    FILE "03 - Schwanengesang, D. 957 - Nr. 3. Fruehlingssehnsucht (Rellstab).flac" WAVE
    TRACK 03 AUDIO
    TITLE "Schwanengesang, D. 957: Nr. 3. Frühlingssehnsucht (Rellstab)"
    PERFORMER "Hermann Prey (baritone), Leonard Hokanson (piano)"
    REM DATE 1981
    INDEX 01 00:00:00
    FILE "04 - Schwanengesang, D. 957 - Nr. 4. Staendchen (Rellstab).flac" WAVE
    TRACK 04 AUDIO
    TITLE "Schwanengesang, D. 957: Nr. 4. Ständchen (Rellstab)"
    PERFORMER "Hermann Prey (baritone), Leonard Hokanson (piano)"
    REM DATE 1981
    INDEX 01 00:00:00
    FILE "05 - Schwanengesang, D. 957 - Nr. 5. Aufenthalt (Rellstab).flac" WAVE
    TRACK 05 AUDIO
    TITLE "Schwanengesang, D. 957: Nr. 5. Aufenthalt (Rellstab)"
    PERFORMER "Hermann Prey (baritone), Leonard Hokanson (piano)"
    REM DATE 1981
    INDEX 01 00:00:00
    FILE "06 - Schwanengesang, D. 957 - Nr. 6. In der Ferne (Rellstab).flac" WAVE
    TRACK 06 AUDIO
    TITLE "Schwanengesang, D. 957: Nr. 6. In der Ferne (Rellstab)"
    PERFORMER "Hermann Prey (baritone), Leonard Hokanson (piano)"
    REM DATE 1981
    INDEX 01 00:00:00
    FILE "07 - Schwanengesang, D. 957 - Nr. 7. Abschied (Rellstab).flac" WAVE
    TRACK 07 AUDIO
    TITLE "Schwanengesang, D. 957: Nr. 7. Abschied (Rellstab)"
    PERFORMER "Hermann Prey (baritone), Leonard Hokanson (piano)"
    REM DATE 1981
    INDEX 01 00:00:00
    FILE "08 - Schwanengesang, D. 957 - Nr. 8. Der Atlas (Heine).flac" WAVE
    TRACK 08 AUDIO
    TITLE "Schwanengesang, D. 957: Nr. 8. Der Atlas (Heine)"
    PERFORMER "Hermann Prey (baritone), Leonard Hokanson (piano)"
    REM DATE 1981
    INDEX 01 00:00:00
    FILE "09 - Schwanengesang, D. 957 - Nr. 9. Ihr Bild (Heine).flac" WAVE
    TRACK 09 AUDIO
    TITLE "Schwanengesang, D. 957: Nr. 9. Ihr Bild (Heine)"
    PERFORMER "Hermann Prey (baritone), Leonard Hokanson (piano)"
    REM DATE 1981
    INDEX 01 00:00:00
    FILE "10 - Schwanengesang, D. 957 - Nr. 10. Das Fischermaedchen (Heine).flac" WAVE
    TRACK 10 AUDIO
    TITLE "Schwanengesang, D. 957: Nr. 10. Das Fischermädchen (Heine)"
    PERFORMER "Hermann Prey (baritone), Leonard Hokanson (piano)"
    REM DATE 1981
    INDEX 01 00:00:00
    FILE "11 - Schwanengesang, D. 957 - Nr. 11. Die Stadt (Heine).flac" WAVE
    TRACK 11 AUDIO
    TITLE "Schwanengesang, D. 957: Nr. 11. Die Stadt (Heine)"
    PERFORMER "Hermann Prey (baritone), Leonard Hokanson (piano)"
    REM DATE 1981
    INDEX 01 00:00:00
    FILE "12 - Schwanengesang, D. 957 - Nr. 12. Am Meer (Heine).flac" WAVE
    TRACK 12 AUDIO
    TITLE "Schwanengesang, D. 957: Nr. 12. Am Meer (Heine)"
    PERFORMER "Hermann Prey (baritone), Leonard Hokanson (piano)"
    REM DATE 1981
    INDEX 01 00:00:00
    FILE "13 - Schwanengesang, D. 957 - Nr. 13. Der Doppelgaenger (Heine).flac" WAVE
    TRACK 13 AUDIO
    TITLE "Schwanengesang, D. 957: Nr. 13. Der Doppelgänger (Heine)"
    PERFORMER "Hermann Prey (baritone), Leonard Hokanson (piano)"
    REM DATE 1981
    INDEX 01 00:00:00
    FILE "14 - Schwanengesang, D. 957 - Nr. 14. Die Taubenpost (Seidl).flac" WAVE
    TRACK 14 AUDIO
    TITLE "Schwanengesang, D. 957: Nr. 14. Die Taubenpost (Seidl)"
    PERFORMER "Hermann Prey (baritone), Leonard Hokanson (piano)"
    REM DATE 1981
    INDEX 01 00:00:00
    TRACK 15 AUDIO
    TITLE "Gretchen am Spinnrade (Goethe), D. 118"
    PERFORMER "Gundula Janowitz (soprano), Irwin Gage (piano)"
    REM DATE 1978
    INDEX 00 04:03:00
    FILE "15 - Gretchen am Spinnrade (Goethe), D. 118.flac" WAVE
    INDEX 01 00:00:00
    FILE "16 - Die junge Nonne (Craghier), D. 828.flac" WAVE
    TRACK 16 AUDIO
    TITLE "Die junge Nonne (Craghier), D. 828"
    PERFORMER "Gundula Janowitz (soprano), Irwin Gage (piano)"
    REM DATE 1978
    INDEX 01 00:00:00
    FILE "17 - Ellens Gesang III (''Ave Maria'') (Scott - Storck), D. 839.flac" WAVE
    TRACK 17 AUDIO
    TITLE "Ellens Gesang III («Ave Maria») (Scott / Storck), D. 839"
    PERFORMER "Gundula Janowitz (soprano), Irwin Gage (piano)"
    REM DATE 1977
    INDEX 01 00:00:00
    FILE "18 - Die Forelle (Schubart), D. 550.flac" WAVE
    TRACK 18 AUDIO
    TITLE "Die Forelle (Schubart), D. 550"
    PERFORMER "Gundula Janowitz (soprano), Irwin Gage (piano)"
    REM DATE 1977
    INDEX 01 00:00:00
    FILE "19 - Wiegenlied (unknown), D. 498.flac" WAVE
    TRACK 19 AUDIO
    TITLE "Wiegenlied (unknown), D. 498"
    PERFORMER "Gundula Janowitz (soprano), Irwin Gage (piano)"
    REM DATE 1978
    INDEX 01 00:00:00
    -
    Franz Schubert — каталог раздач на rutracker.orgВсе мои раздачи / All my releases



  • Показать сообщения:    

    Текущее время: 06-Дек 19:03

    Часовой пояс: UTC + 3


    Вы не можете начинать темы
    Вы не можете отвечать на сообщения
    Вы не можете редактировать свои сообщения
    Вы не можете удалять свои сообщения
    Вы не можете голосовать в опросах
    Вы не можете прикреплять файлы к сообщениям
    Вы не можете скачивать файлы