(Classical) Neapolitan Flute Concertos II - Francesco Papa, Davide Perez, Carlo Cecere, Antonio Palella, Geraso - Carlo Ipata, Auser Musici - 2013, FLAC (image+.cue) lossless


Статистика раздачи [Обновить пиров]
Размер:  306 MB   |    Зарегистрирован:  8 месяцев 19 дней   |    Скачан:  0 раз

Полного источника не было: Никогда

 
   
 
 
 

[Цитировать]

Neapolitan Flute Concertos II - Francesco Papa, Davide Perez, Carlo Cecere, Antonio Palella, Geraso - Carlo Ipata, Auser Musici
Жанр: Classical
Страна-производитель диска: UK
Год издания диска: 2013
Издатель (лейбл): Hyperion
Номер по каталогу: CDA67884
Дата записи: 2011
Аудиокодек: FLAC
Тип рипа: image+.cue
Битрейт аудио: lossless
Продолжительность: 62:16
Источник: собственный рип
Наличие сканов в содержимом раздачи: да
Треклист:
Geraso (fl early 1700s)
[1]-[3] Flute Concerto in G major
Davide Perez (1711-1778)
[4]-[7] Flute Concerto in G major
Carlo Cecere (1706-1761)
[8]-[10] Flute Concerto in G major
Francesco Papa (fl mid-1700s)
[11]-[13] Flute Concerto in D major
Antonio Palella (1692-1761) attributed
[14]-[16] Flute Concerto in G major
Исполнители:
Carlo Ipata Baroque flute
Auser Musici

Лог создания рипа

Exact Audio Copy V1.0 beta 3 from 29. August 2011
EAC extraction logfile from 10. November 2013, 18:37
Carlo Ipata, Auser Musici / Neapolitan Flute Concertos, Vol. 2
Used drive : HL-DT-STDVDRAM GSA-4083N Adapter: 1 ID: 0
Read mode : Secure
Utilize accurate stream : Yes
Defeat audio cache : Yes
Make use of C2 pointers : No
Read offset correction : 667
Overread into Lead-In and Lead-Out : No
Fill up missing offset samples with silence : Yes
Delete leading and trailing silent blocks : No
Null samples used in CRC calculations : Yes
Used interface : Native Win32 interface for Win NT & 2000
Used output format : User Defined Encoder
Selected bitrate : 896 kBit/s
Quality : High
Add ID3 tag : No
Command line compressor : C:\Program Files\Exact Audio Copy\Flac\flac.exe
Additional command line options : -V -8 %source%
TOC of the extracted CD
Track | Start | Length | Start sector | End sector
---------------------------------------------------------
1 | 0:00.00 | 3:41.44 | 0 | 16618
2 | 3:41.44 | 3:51.05 | 16619 | 33948
3 | 7:32.49 | 3:29.16 | 33949 | 49639
4 | 11:01.65 | 2:42.33 | 49640 | 61822
5 | 13:44.23 | 3:40.16 | 61823 | 78338
6 | 17:24.39 | 3:59.23 | 78339 | 96286
7 | 21:23.62 | 4:32.00 | 96287 | 116686
8 | 25:55.62 | 3:33.11 | 116687 | 132672
9 | 29:28.73 | 3:42.20 | 132673 | 149342
10 | 33:11.18 | 2:51.14 | 149343 | 162181
11 | 36:02.32 | 3:32.74 | 162182 | 178155
12 | 39:35.31 | 4:58.16 | 178156 | 200521
13 | 44:33.47 | 3:43.01 | 200522 | 217247
14 | 48:16.48 | 4:37.59 | 217248 | 238081
15 | 52:54.32 | 5:20.12 | 238082 | 262093
16 | 58:14.44 | 3:59.40 | 262094 | 280058
Range status and errors
Selected range
Filename J:\New Music\Neapolitan Flute Concertos II - Carlo Ipata, Auser Musici\Neapolitan Flute Concertos, Vol. 2.wav
Peak level 96.6 %
Extraction speed 2.7 X
Range quality 100.0 %
Test CRC C4572991
Copy CRC C4572991
Copy OK
No errors occurred
End of status report
==== Log checksum 3A124CA8918D9A586F2CDF0E778FEB78DD50B1E5C829DEE0A77EDFBBE4C82725 ====
[teatrix.ru].t17839.torrent 
Торрент: Зарегистрирован [ 2016-03-17 00:49 ] · BEE5D3B17166B6A4D1791833C9338978F5F3CA2C

Скачать .torrent

Скачать

25 KB

Статус: проверено
Скачан: 0 раз
Размер: 306 MB
terms.php



Быстрый ответ

Имя:

      
Для отправки сообщений необходимо включить JavaScript
Показать сообщения:    

Текущее время: 05-Дек 17:35

Часовой пояс: UTC + 3


Вы можете начинать темы
Вы можете отвечать на сообщения
Вы не можете редактировать свои сообщения
Вы не можете удалять свои сообщения
Вы не можете голосовать в опросах
Вы не можете прикреплять файлы к сообщениям
Вы можете скачивать файлы