(Classical, Chamber Music) Peteris Vasks: Flute Concerto, Flute Sonata, Aria e danza, Landscape with Birds (Michael Faust) - 2013, FLAC (image+.cue) lossless


Статистика раздачи [Обновить пиров]
Размер:  222 MB   |    Зарегистрирован:  8 месяцев 16 дней   |    Скачан:  0 раз

Полного источника не было: Никогда

 
   
 
 
 

[Цитировать]

Peteris Vasks
Flute Concerto, Flute Sonata, Aria e danza, Landscape with Birds
Жанр: Classical, Chamber Music
Страна-производитель диска: Germany
Год издания диска: 2013
Издатель (лейбл): Naxos
Номер по каталогу: 8.572634
Дата записи: 2010-2012
Аудиокодек: FLAC
Тип рипа: image+.cue
Битрейт аудио: lossless
Продолжительность: 64:55
Источник: собственный рип
Наличие сканов в содержимом раздачи: да
Треклист:
Concerto for Flute and Orchestra (2007-08, rev. 2011)***†
1. I. Cantabile
2. II. Quasi una Burlesca
3. III. Cantabile
Sonata for Flute and Alto Flute Solo (1992)
4. I. Nakts (Night): Misterioso*
5. II. Lidojums (Flight): Agitato
6. III. Nakts (Night): Misterioso*
Aria e danza for Flute and Piano (1972, rev, 2010)**†
7. I. Aria
8. II. Danza: Giocoso
9. Landscape with Birds for Flute Solo (1980)
†WORLD PREMIÈRE RECORDINGS
Исполнители:
Artists:
Michael Faust, Flute / Alto flute*
Sheila Arnold, Piano**
Orchestra:
Sinfonia Finlandia Jyväskylä***
Conductor:
Patrick Gallois***

Лог создания рипа

Exact Audio Copy V1.0 beta 3 from 29. August 2011
Отчёт EAC об извлечении, выполненном 6. ноября 2013, 10:24
Peteris Vasks / Flute Concerto / Flute Sonata / Aria e danza / Landscape with Birds
Дисковод: Optiarc DVD+-RW AD-7717H Adapter: 0 ID: 0
Режим чтения : Достоверность
Использование точного потока : Да
Отключение кэша аудио : Да
Использование указателей C2 : Нет
Коррекция смещения при чтении : 48
Способность читать области Lead-in и Lead-out : Нет
Заполнение пропущенных сэмплов тишиной : Да
Удаление блоков с тишиной в начале и конце : Нет
При вычислениях CRC использовались нулевые сэмплы : Да
Интерфейс : Встроенный Win32-интерфейс для Win NT/2000
Выходной формат : Пользовательский кодировщик
Выбранный битрейт : 128 kBit/s
Качество : Высокий
Добавление ID3-тега : Да
Утилита сжатия : C:\Program Files (x86)\Monkey's Audio\MAC.exe
Дополнительные параметры : %source% %dest% -c3000
TOC извлечённого CD
Трек | Старт | Длительность | Начальный сектор | Конечный сектор
---------------------------------------------------------------------
1 | 0:00.00 | 8:10.24 | 0 | 36773
2 | 8:10.24 | 14:07.57 | 36774 | 100355
3 | 22:18.06 | 11:13.42 | 100356 | 150872
4 | 33:31.48 | 3:27.72 | 150873 | 166469
5 | 36:59.45 | 5:05.52 | 166470 | 189396
6 | 42:05.22 | 3:22.18 | 189397 | 204564
7 | 45:27.40 | 6:49.63 | 204565 | 235302
8 | 52:17.28 | 4:24.49 | 235303 | 255151
9 | 56:42.02 | 8:10.73 | 255152 | 291974
Характеристики диапазона извлечения и сообщения об ошибках
Выбранный диапазон
Имя файла D:\Music\Peteris vasks\Flute Concerto\Peteris Vasks - Flute Concerto , Flute Sonata , Aria e danza , Landscape with Birds.wav
Пиковый уровень 99.0 %
Скорость извлечения 5.1 X
Качество диапазона 99.9 %
CRC теста 2D15DCDF
CRC копии 2D15DCDF
Копирование... OK
Ошибок не произошло
Конец отчёта
==== Контрольная сумма отчёта 7F4CF1CA4824EFDB7E03AAF1124193483834F1D21C16AFCEEE47F7B28BD9FD00 ====
Доп. информация: Renowned for its luminosity and searing expressiveness, the music of Latvian composer Pēteris Vasks frequently explores the relationship between nature and humanity, not least in the Flute Concerto written for Michael Faust, which is among the most expansive of Vasks’ orchestral works. Abstract qualities in the Sonata contrast with the deftly defined lyrical and rhythmic elements of Aria e danza, while Landscape with Birds exploits the entirety of the flute’s timbral range.
[teatrix.ru].t17840.torrent 
Торрент: Зарегистрирован [ 2016-03-17 00:49 ] · 451C5A6ACBEF9B462636DDC27623B80D4E495AF4

Скачать .torrent

Скачать

18 KB

Статус: проверено
Скачан: 0 раз
Размер: 222 MB
terms.php



Быстрый ответ

Имя:

      
Для отправки сообщений необходимо включить JavaScript
Показать сообщения:    

Текущее время: 02-Дек 21:08

Часовой пояс: UTC + 3


Вы можете начинать темы
Вы можете отвечать на сообщения
Вы не можете редактировать свои сообщения
Вы не можете удалять свои сообщения
Вы не можете голосовать в опросах
Вы не можете прикреплять файлы к сообщениям
Вы можете скачивать файлы