(Classical, sacred) Vidimus Stellam - Weihnachten, Epiphanie - Gregorian Chants in Dialogue with Organ Music of Charles Tournemire - Schola Gregoriana Monacensis, Johannes Berchmans Goschl, Harald Feller - 2008, FLAC (image+.cue) lossless


Статистика раздачи [Обновить пиров]
Размер:  316 MB   |    Зарегистрирован:  8 месяцев 24 дня   |    Скачан:  0 раз

Полного источника не было: Никогда

 
   
 
 
 

[Цитировать]

Vidimus Stellam - Weihnachten, Epiphanie - Gregorian Chants in Dialogue with Organ Music of Charles Tournemire - Schola Gregoriana Monacensis, Johannes Berchmans Göschl, Harald Feller
Жанр: Classical, sacred
Страна-производитель диска: Germany
Год издания диска: 2008
Издатель (лейбл): Ars Musici
Номер по каталогу: 232369
Дата записи: 2002
Аудиокодек: FLAC
Тип рипа: image+.cue
Битрейт аудио: lossless
Продолжительность: 78:22
Источник: собственный рип
Наличие сканов в содержимом раздачи: да
Треклист:
Gregorian Chants in Dialogue with Organ Music of Charles Tournemire (from "L'Orgue Mystique")
In Nativitate Domini - Ad Missam in Die
[1] Orgel: Prelude a l'introit
[2] Introitus 'Puer natus est'
[3] Graduale 'Viderunt omnes fines terrae'
[4] Alleluia 'Dies sanctificatus'
[5] Orgel: Offertoire
[6] Offertorium 'Tui sunt caeli'
[7] Orgel: Elevation
[8] Antiphon 'Veritas de terra orta est'
[9] Orgel: Communion
[10] Communio 'Viderunt omnes fines terrae'
[11] Antiphon 'Ego dormivi'
[12] Orgel: Paraphrase
[13] Hymnus 'A solis ortus cardine'
In Epiphania Domini - Ad Missam
[14] Orgel: Prelude a l'introit
[15] Introitus 'Ecce advenit'
[16] Graduale 'Omnes de Saba venient'
[17] Alleluia 'Vidimus stellam'
[18] Orgel: Offertoire
[19] Offertorium 'Reges Tharsis'
[20] Orgel: Elevation
[21] Antiphon 'Apertis thesauris suis'
[22] Orgel: Communion
[23] Communio 'Vidimus stellam'
[24] Orgel: Fantaisie
[25] Hymnus 'Crudelis Herodes'
Исполнители:
Schola Gregoriana Monacensis
Johannes Berchmans Göschl
conductor
Harald Feller organ

Лог создания рипа

Exact Audio Copy V1.0 beta 3 from 29. August 2011
EAC extraction logfile from 26. July 2013, 16:26
Schola Gregoriana Monacensis, Johannes Berchmans Göschl; Harald Feller / Vidimus Stellam
Used drive : HL-DT-STDVDRRW GWA-4164B Adapter: 5 ID: 0
Read mode : Secure
Utilize accurate stream : Yes
Defeat audio cache : Yes
Make use of C2 pointers : No
Read offset correction : 102
Overread into Lead-In and Lead-Out : No
Fill up missing offset samples with silence : Yes
Delete leading and trailing silent blocks : No
Null samples used in CRC calculations : Yes
Used interface : Native Win32 interface for Win NT & 2000
Used output format : User Defined Encoder
Selected bitrate : 896 kBit/s
Quality : High
Add ID3 tag : No
Command line compressor : C:\Program Files\Exact Audio Copy\FLAC\FLAC.EXE
Additional command line options : -V -8 %source%
TOC of the extracted CD
Track | Start | Length | Start sector | End sector
---------------------------------------------------------
1 | 0:00.00 | 1:13.72 | 0 | 5546
2 | 1:13.72 | 2:32.28 | 5547 | 16974
3 | 3:46.25 | 3:48.41 | 16975 | 34115
4 | 7:34.66 | 2:27.72 | 34116 | 45212
5 | 10:02.63 | 6:37.61 | 45213 | 75048
6 | 16:40.49 | 4:36.12 | 75049 | 95760
7 | 21:16.61 | 1:06.16 | 95761 | 100726
8 | 22:23.02 | 0:20.15 | 100727 | 102241
9 | 22:43.17 | 3:50.62 | 102242 | 119553
10 | 26:34.04 | 1:44.16 | 119554 | 127369
11 | 28:18.20 | 0:26.51 | 127370 | 129370
12 | 28:44.71 | 9:45.37 | 129371 | 173282
13 | 38:30.33 | 4:41.60 | 173283 | 194417
14 | 43:12.18 | 1:33.49 | 194418 | 201441
15 | 44:45.67 | 2:03.70 | 201442 | 210736
16 | 46:49.62 | 3:35.55 | 210737 | 226916
17 | 50:25.42 | 2:19.60 | 226917 | 237401
18 | 52:45.27 | 3:13.74 | 237402 | 251950
19 | 55:59.26 | 4:28.70 | 251951 | 272120
20 | 60:28.21 | 1:27.55 | 272121 | 278700
21 | 61:56.01 | 0:31.52 | 278701 | 281077
22 | 62:27.53 | 3:48.39 | 281078 | 298216
23 | 66:16.17 | 1:54.07 | 298217 | 306773
24 | 68:10.24 | 8:06.29 | 306774 | 343252
25 | 76:16.53 | 2:06.03 | 343253 | 352705
Range status and errors
Selected range
Filename C:\temp\Vidimus Stellam\Vidimus Stellam.wav
Peak level 100.0 %
Extraction speed 3.1 X
Range quality 99.9 %
Test CRC 012D0D8D
Copy CRC 012D0D8D
Copy OK
No errors occurred
AccurateRip summary
Track 1 not present in database
Track 2 not present in database
Track 3 not present in database
Track 4 not present in database
Track 5 not present in database
Track 6 not present in database
Track 7 not present in database
Track 8 not present in database
Track 9 not present in database
Track 10 not present in database
Track 11 not present in database
Track 12 not present in database
Track 13 not present in database
Track 14 not present in database
Track 15 not present in database
Track 16 not present in database
Track 17 not present in database
Track 18 not present in database
Track 19 not present in database
Track 20 not present in database
Track 21 not present in database
Track 22 not present in database
Track 23 not present in database
Track 24 not present in database
Track 25 not present in database
None of the tracks are present in the AccurateRip database
End of status report
==== Log checksum AD761CBDAA56A474B1C061578442AE5862FE025FA1AD653488D9F20DB536D677 ====
[teatrix.ru].t17841.torrent 
Торрент: Зарегистрирован [ 2016-03-17 00:49 ] · 1D415C98040CAB7CAEECC1D4604DD3456A7843EF

Скачать .torrent

Скачать

27 KB

Статус: проверено
Скачан: 0 раз
Размер: 316 MB
terms.php



Быстрый ответ

Имя:

      
Для отправки сообщений необходимо включить JavaScript
Показать сообщения:    

Текущее время: 10-Дек 06:07

Часовой пояс: UTC + 3


Вы можете начинать темы
Вы можете отвечать на сообщения
Вы не можете редактировать свои сообщения
Вы не можете удалять свои сообщения
Вы не можете голосовать в опросах
Вы не можете прикреплять файлы к сообщениям
Вы можете скачивать файлы