(Classical, Choral, Sacred) John Tavener - Ikon Of Eros - 2003, FLAC (tracks+.cue) lossless


Статистика раздачи [Обновить пиров]
Размер:  308 MB   |    Зарегистрирован:  8 месяцев 23 дня   |    Скачан:  0 раз

Полного источника не было: Никогда

 
   
 
 
 

[Цитировать]

John Tavener - Ikon Of Eros
Жанр: Classical, Choral, Sacred
Страна-производитель диска: UK
Год издания диска: 2003
Издатель (лейбл): Reference Recordings
Аудиокодек: FLAC
Тип рипа: tracks+.cue
Битрейт аудио: lossless
Продолжительность: 1:12:03
Источник: релизер
сайт-источник/ник/другое: kivius
Наличие сканов в содержимом раздачи: нет
Треклист:
1 Movement 1. Metemorphóthes. Éros 17:26
2 Movement 2. Éros 7:48
3 Movement 3. Ékstasis. Purified, O Soma, by drops, thou movest concealed in the waters; rich in trea 15:53
4 Movement 4. Metemorphóthes. Allilúia. Éros 20:09
5 John Tavener in interview with Brian Newhouse
Исполнители:
Minnesota Orchestra and Minnesota Chorale with Paul Goodwin, Conductor
Jorja Fleezanis, Violin
Patricia Rozario, Soprano
Tim Krol, Baritone

Лог создания рипа

X Lossless Decoder version 20130127 (142.3)
XLD extraction logfile from 2013-02-06 13:10:22 -0600
John Tavener / Tavener: Ikon Of Eros
Used drive : MATSHITA DVD-R UJ-868 (revision KB19)
Media type : Pressed CD
Ripper mode : XLD Secure Ripper
Disable audio cache : OK for the drive with a cache less than 1375KiB
Make use of C2 pointers : NO
Read offset correction : 102
Max retry count : 100
Gap status : Analyzed, Appended (except HTOA)
TOC of the extracted CD
Track | Start | Length | Start sector | End sector
---------------------------------------------------------
1 | 00:00:00 | 17:26:12 | 0 | 78461
2 | 17:26:12 | 07:48:40 | 78462 | 113601
3 | 25:14:52 | 15:53:20 | 113602 | 185096
4 | 41:07:72 | 20:09:53 | 185097 | 275824
5 | 61:17:50 | 10:46:10 | 275825 | 324284
AccurateRip Summary (DiscID: 000ee977-0045a00a-4a10e305)
Track 01 : OK (v1, confidence 3/3)
Track 02 : OK (v1, confidence 4/4)
Track 03 : OK (v1, confidence 4/4)
Track 04 : OK (v1, confidence 3/3)
Track 05 : OK (v1, confidence 3/3)
->All tracks accurately ripped.
All Tracks
Album gain : 3.06 dB
Peak : 0.967804
Statistics
Read error : 0
Jitter error (maybe fixed) : 0
Retry sector count : 0
Damaged sector count : 0
Track 01
Filename : /Volumes/Lurch/Music/XLD Rips/CD Rips/John Tavener - Tavener: Ikon Of Eros (Fleezanis, MN Orchestra, Goodwin) [FLAC]/01 I. Metamorphothes-Eros.flac
Pre-gap length : 00:02:00
Track gain : 4.19 dB
Peak : 0.678406
CRC32 hash (test run) : 606A0EA5
CRC32 hash : 606A0EA5
CRC32 hash (skip zero) : 3D042BBB
AccurateRip v1 signature : 1915F72E
AccurateRip v2 signature : 838F83F6
->Accurately ripped (v1, confidence 3/3)
Statistics
Read error : 0
Jitter error (maybe fixed) : 0
Retry sector count : 0
Damaged sector count : 0
Track 02
Filename : /Volumes/Lurch/Music/XLD Rips/CD Rips/John Tavener - Tavener: Ikon Of Eros (Fleezanis, MN Orchestra, Goodwin) [FLAC]/02 II. Eros.flac
Track gain : 3.96 dB
Peak : 0.967804
CRC32 hash (test run) : F1C3BEA3
CRC32 hash : F1C3BEA3
CRC32 hash (skip zero) : 0B079508
AccurateRip v1 signature : A151FAF2
AccurateRip v2 signature : 870C462C
->Accurately ripped (v1, confidence 4/4)
Statistics
Read error : 0
Jitter error (maybe fixed) : 0
Retry sector count : 0
Damaged sector count : 0
Track 03
Filename : /Volumes/Lurch/Music/XLD Rips/CD Rips/John Tavener - Tavener: Ikon Of Eros (Fleezanis, MN Orchestra, Goodwin) [FLAC]/03 III. Ekstasis-Ekstasis-Eros.flac
Track gain : 0.94 dB
Peak : 0.967773
CRC32 hash (test run) : 6A717E95
CRC32 hash : 6A717E95
CRC32 hash (skip zero) : 75C407D8
AccurateRip v1 signature : C5D7ECEF
AccurateRip v2 signature : 06A0FD12
->Accurately ripped (v1, confidence 4/4)
Statistics
Read error : 0
Jitter error (maybe fixed) : 0
Retry sector count : 0
Damaged sector count : 0
Track 04
Filename : /Volumes/Lurch/Music/XLD Rips/CD Rips/John Tavener - Tavener: Ikon Of Eros (Fleezanis, MN Orchestra, Goodwin) [FLAC]/04 IV. Metamorphothes-Alliluia-Eros.flac
Track gain : 3.06 dB
Peak : 0.852844
CRC32 hash (test run) : 43C3E239
CRC32 hash : 43C3E239
CRC32 hash (skip zero) : 40E67C17
AccurateRip v1 signature : F5F08C4B
AccurateRip v2 signature : A21131B3
->Accurately ripped (v1, confidence 3/3)
Statistics
Read error : 0
Jitter error (maybe fixed) : 0
Retry sector count : 0
Damaged sector count : 0
Track 05
Filename : /Volumes/Lurch/Music/XLD Rips/CD Rips/John Tavener - Tavener: Ikon Of Eros (Fleezanis, MN Orchestra, Goodwin) [FLAC]/05 John Tavener In Interview With Brian Newhouse.flac
Pre-gap length : 00:19:30
Track gain : 14.05 dB
Peak : 0.177399
CRC32 hash (test run) : 973CB06C
CRC32 hash : 973CB06C
CRC32 hash (skip zero) : 680825B2
AccurateRip v1 signature : 693EF2C6
AccurateRip v2 signature : 74C8144E
->Accurately ripped (v1, confidence 3/3)
Statistics
Read error : 0
Jitter error (maybe fixed) : 0
Retry sector count : 0
Damaged sector count : 0
No errors occurred
End of status report

Содержание индексной карты (.CUE)

TITLE "Tavener: Ikon Of Eros"
PERFORMER "John Tavener"
REM GENRE "Classical"
REM DATE "2003"
REM DISCNUMBER 1
REM TOTALDISCS 1
REM DISCID 4A10E305
REM REPLAYGAIN_ALBUM_GAIN 3.06 dB
REM REPLAYGAIN_ALBUM_PEAK 0.967804
FILE "01 I. Metamorphothes-Eros.flac" WAVE
TRACK 01 AUDIO
TITLE "I. Metamorphothes-Eros"
PERFORMER "Jorja Fleezanis, Tim Krol, Patricia Rozario, & Minnesota Orchestra under Paul Goodwin"
SONGWRITER "John Tavener"
REM REPLAYGAIN_TRACK_GAIN 4.19 dB
REM REPLAYGAIN_TRACK_PEAK 0.678406
INDEX 01 00:00:00
FILE "02 II. Eros.flac" WAVE
TRACK 02 AUDIO
TITLE "II. Eros"
PERFORMER "Jorja Fleezanis, Tim Krol, Patricia Rozario, & Minnesota Orchestra under Paul Goodwin"
SONGWRITER "John Tavener"
REM REPLAYGAIN_TRACK_GAIN 3.96 dB
REM REPLAYGAIN_TRACK_PEAK 0.967804
INDEX 01 00:00:00
FILE "03 III. Ekstasis-Ekstasis-Eros.flac" WAVE
TRACK 03 AUDIO
TITLE "III. Ekstasis-Ekstasis-Eros"
PERFORMER "Jorja Fleezanis, Tim Krol, Patricia Rozario, & Minnesota Orchestra under Paul Goodwin"
SONGWRITER "John Tavener"
REM REPLAYGAIN_TRACK_GAIN 0.94 dB
REM REPLAYGAIN_TRACK_PEAK 0.967773
INDEX 01 00:00:00
FILE "04 IV. Metamorphothes-Alliluia-Eros.flac" WAVE
TRACK 04 AUDIO
TITLE "IV. Metamorphothes-Alliluia-Eros"
PERFORMER "Jorja Fleezanis, Tim Krol, Patricia Rozario, & Minnesota Orchestra under Paul Goodwin"
SONGWRITER "John Tavener"
REM REPLAYGAIN_TRACK_GAIN 3.06 dB
REM REPLAYGAIN_TRACK_PEAK 0.852844
INDEX 01 00:00:00
TRACK 05 AUDIO
TITLE "John Tavener In Interview With Brian Newhouse"
PERFORMER "John Tavener"
SONGWRITER "John Tavener"
REM REPLAYGAIN_TRACK_GAIN 14.05 dB
REM REPLAYGAIN_TRACK_PEAK 0.177399
INDEX 00 19:50:23
FILE "05 John Tavener In Interview With Brian Newhouse.flac" WAVE
INDEX 01 00:00:00
[teatrix.ru].t17842.torrent 
Торрент: Зарегистрирован [ 2016-03-17 00:49 ] · F6AC00C2C25D2D4B22C2A4EC06F54CD5CB3F34BD

Скачать .torrent

Скачать

13 KB

Статус: проверено
Скачан: 0 раз
Размер: 308 MB
terms.php



Быстрый ответ

Имя:

      
Для отправки сообщений необходимо включить JavaScript
Показать сообщения:    

Текущее время: 09-Дек 20:31

Часовой пояс: UTC + 3


Вы можете начинать темы
Вы можете отвечать на сообщения
Вы не можете редактировать свои сообщения
Вы не можете удалять свои сообщения
Вы не можете голосовать в опросах
Вы не можете прикреплять файлы к сообщениям
Вы можете скачивать файлы