(Classical / Piano Concerto) Антон Рубинштейн - Фортепианные концерты • Русское каприччио / Anton Rubinstein - The Piano Concertos • Caprice russe (Joseph Banowetz, Alfred Walter, Robert Stankovsky, 1991-1993) - 1991-1994, FLAC (image+.cue) lossless


Статистика раздачи [Обновить пиров]
Размер:  800 MB   |    Зарегистрирован:  8 месяцев 25 дней   |    Скачан:  0 раз

Полного источника не было: Никогда

 
   
 
 
 

[Цитировать]

Anton Rubinstein | Антон Рубинштейн
(1829–1894)



Фортепианные концертыРусское каприччио
The Piano ConcertosCaprice russe


Joseph Banowetz piano
Štátna filharmónia KošiceSymfonický orchester Slovenského rozhlasu
Alfred Walter, Robert Stankovsky conductors


Жанр: Classical / Piano Concerto
Даты записи: 1991–1993
Формат записи: DDD, Stereo
Год издания диска: 1991–1994
Издатель (лейбл): Marco Polo
Номера по каталогу: 8.223456, 8.223382, 8.223489
Аудиокодек: FLAC
Тип рипа: image+.cue
Битрейт аудио: lossless
Продолжительность: 3:31:35
Наличие сканов в содержимом раздачи: да
Источник: блог OdeonMusic

-Tracklist / ТреклистCD 1: Концерты №№ 1 и 2
Piano Concerto No. 1 in E minor, Op. 25 - 38:01
I. Moderato - 17:08
  • II. Andante con moto - 8:22
  • III. Con moto - 12:32
    Piano Concerto No. 2 in F major, Op. 35 - 41:11
    I. Allegro vivace assai - 19:00
  • II. Adagio non troppo - 11:34
  • III. Moderato - 10:37
    _____
    Joseph Banowetz, Štátna filharmónia Košice. Alfred Walter, conductor
    Recorded: House of Arts, Košice, 3–7 March 1992

    CD 2: Концерты №№ 3 и 4
    Piano Concerto No. 3 in G major, Op. 45 - 31:19
    I. Moderato assai - 11:13
  • II. Moderato - 6:39
  • III. Allegro non troppo - 13:27
    Piano Concerto No. 4 in D minor, Op. 70 - 33:44
    I. Moderato assai - 12:12
  • II. Andante - 11:52
  • III. Allegro - 9:40
    _____
    Joseph Banowetz, Štátna filharmónia Košice. Robert Stankovsky, conductor
    Recorded: House of Arts, Košice, 11–16 March 1991

    CD 3: Концерт № 5 • Русское каприччио
    Piano Concerto No. 5 in E flat major, Op. 94 - 46:50
    I. Allegro moderato - 20:47
  • II. Andante - 10:12
  • III. Allegro - 15:51
    Caprice russe (Русское каприччио) in C minor, Op. 102 - 20:28
    _____
    Joseph Banowetz, Symfonický orchester Slovenského rozhlasu (Bratislava). Robert Stankovsky, conductor
    Recorded: Concert Hall of the Slovak Radio, Bratislava, 13–18 December 1993
    -

    EAC logs / Отчёты EACCD 1: Концерты №№ 1 и 2

    Exact Audio Copy V1.0 beta 3 from 29. August 2011
    EAC extraction logfile from 7. November 2012, 19:00
    Joseph Banowetz / A.Rubinstein – Piano Concertos 1 & 2 – Banowetz
    Used drive : TSSTcorpCDDVDW SH-222BB Adapter: 2 ID: 1
    Read mode : Secure
    Utilize accurate stream : Yes
    Defeat audio cache : Yes
    Make use of C2 pointers : No
    Read offset correction : 6
    Overread into Lead-In and Lead-Out : No
    Fill up missing offset samples with silence : Yes
    Delete leading and trailing silent blocks : No
    Null samples used in CRC calculations : Yes
    Used interface : Native Win32 interface for Win NT & 2000
    Used output format : User Defined Encoder
    Selected bitrate : 1024 kBit/s
    Quality : High
    Add ID3 tag : No
    Command line compressor : C:\Program Files\Exact Audio Copy\Flac\flac.exe
    Additional command line options : -8 -V -T "TITLE=%title%" -T "ARTIST=%artist%" -T "ALBUMARTIST=%albumartist%" -T "ALBUM=%albumtitle%" -T "DATE=%year%" -T "TRACKNUMBER=%tracknr%" -T "TRACKTOTAL=%numtracks%" -T "GENRE=%genre%" -T "COMMENT=%comment%" -T "PERFORMER=%albuminterpret%" -T "COMPOSER=%composer%" %source% -o %dest%
    TOC of the extracted CD
    Track | Start | Length | Start sector | End sector
    ---------------------------------------------------------
    1 | 0:00.00 | 17:07.40 | 0 | 77064
    2 | 17:07.40 | 8:21.60 | 77065 | 114699
    3 | 25:29.25 | 12:32.00 | 114700 | 171099
    4 | 38:01.25 | 19:00.00 | 171100 | 256599
    5 | 57:01.25 | 11:34.00 | 256600 | 308649
    6 | 68:35.25 | 10:37.35 | 308650 | 356459
    Range status and errors
    Selected range
    Filename G:\Ripped general\[1480] A.Rubinstein – Piano Concertos 1 & 2 – Banowetz\A.Rubinstein – Piano Concertos 1 & 2 – Banowetz.wav
    Peak level 100.0 %
    Extraction speed 8.2 X
    Range quality 100.0 %
    Test CRC 72394553
    Copy CRC 72394553
    Copy OK
    No errors occurred
    AccurateRip summary
    Track 1 cannot be verified as accurate (confidence 2) [1AAB8606], AccurateRip returned [3D1688CD] (AR v2)
    Track 2 cannot be verified as accurate (confidence 2) [F60FDBCC], AccurateRip returned [A7379611] (AR v2)
    Track 3 cannot be verified as accurate (confidence 2) [B986BCDC], AccurateRip returned [47B39F42] (AR v2)
    Track 4 cannot be verified as accurate (confidence 2) [BE331129], AccurateRip returned [078E699E] (AR v2)
    Track 5 cannot be verified as accurate (confidence 2) [2F6847A2], AccurateRip returned [C135E1E3] (AR v2)
    Track 6 cannot be verified as accurate (confidence 2) [7AEBF1C2], AccurateRip returned [0B73E776] (AR v2)
    No tracks could be verified as accurate
    You may have a different pressing from the one(s) in the database
    End of status report

    CD 2: Концерты №№ 3 и 4

    Exact Audio Copy V1.0 beta 3 from 29. August 2011
    EAC extraction logfile from 7. November 2012, 19:26
    Joseph Banowetz / A.Rubinstein – Piano Concertos 3 & 4 – Banowetz
    Used drive : TSSTcorpCDDVDW SH-222BB Adapter: 2 ID: 1
    Read mode : Secure
    Utilize accurate stream : Yes
    Defeat audio cache : Yes
    Make use of C2 pointers : No
    Read offset correction : 6
    Overread into Lead-In and Lead-Out : No
    Fill up missing offset samples with silence : Yes
    Delete leading and trailing silent blocks : No
    Null samples used in CRC calculations : Yes
    Used interface : Native Win32 interface for Win NT & 2000
    Used output format : User Defined Encoder
    Selected bitrate : 1024 kBit/s
    Quality : High
    Add ID3 tag : No
    Command line compressor : C:\Program Files\Exact Audio Copy\Flac\flac.exe
    Additional command line options : -8 -V -T "TITLE=%title%" -T "ARTIST=%artist%" -T "ALBUMARTIST=%albumartist%" -T "ALBUM=%albumtitle%" -T "DATE=%year%" -T "TRACKNUMBER=%tracknr%" -T "TRACKTOTAL=%numtracks%" -T "GENRE=%genre%" -T "COMMENT=%comment%" -T "PERFORMER=%albuminterpret%" -T "COMPOSER=%composer%" %source% -o %dest%
    TOC of the extracted CD
    Track | Start | Length | Start sector | End sector
    ---------------------------------------------------------
    1 | 0:00.00 | 11:13.25 | 0 | 50499
    2 | 11:13.25 | 6:39.00 | 50500 | 80424
    3 | 17:52.25 | 13:27.00 | 80425 | 140949
    4 | 31:19.25 | 12:12.00 | 140950 | 195849
    5 | 43:31.25 | 11:52.00 | 195850 | 249249
    6 | 55:23.25 | 9:40.17 | 249250 | 292766
    Range status and errors
    Selected range
    Filename G:\Ripped general\[1375] A.Rubinstein – Piano Concertos 3 & 4 – Banowetz\A.Rubinstein – Piano Concertos 3 & 4 – Banowetz.wav
    Peak level 99.9 %
    Extraction speed 7.4 X
    Range quality 100.0 %
    Test CRC F59CA57D
    Copy CRC F59CA57D
    Copy OK
    No errors occurred
    AccurateRip summary
    Track 1 accurately ripped (confidence 2) [7C9751EA] (AR v1)
    Track 2 accurately ripped (confidence 2) [11EA2155] (AR v1)
    Track 3 accurately ripped (confidence 2) [08D5A875] (AR v1)
    Track 4 accurately ripped (confidence 2) [8A7F25E7] (AR v1)
    Track 5 accurately ripped (confidence 2) [61029E19] (AR v1)
    Track 6 accurately ripped (confidence 2) [4A5AEA0E] (AR v1)
    All tracks accurately ripped
    End of status report

    CD 3: Концерт № 5 • Русское каприччио

    Exact Audio Copy V1.0 beta 3 from 29. August 2011
    EAC extraction logfile from 7. November 2012, 20:42
    Robert Stankovsky / A.Rubinstein – Piano Concerto 5, Caprice russe – Banowetz
    Used drive : TSSTcorpCDDVDW SH-222BB Adapter: 2 ID: 1
    Read mode : Secure
    Utilize accurate stream : Yes
    Defeat audio cache : Yes
    Make use of C2 pointers : No
    Read offset correction : 6
    Overread into Lead-In and Lead-Out : No
    Fill up missing offset samples with silence : Yes
    Delete leading and trailing silent blocks : No
    Null samples used in CRC calculations : Yes
    Used interface : Native Win32 interface for Win NT & 2000
    Used output format : User Defined Encoder
    Selected bitrate : 1024 kBit/s
    Quality : High
    Add ID3 tag : No
    Command line compressor : C:\Program Files\Exact Audio Copy\Flac\flac.exe
    Additional command line options : -8 -V -T "TITLE=%title%" -T "ARTIST=%artist%" -T "ALBUMARTIST=%albumartist%" -T "ALBUM=%albumtitle%" -T "DATE=%year%" -T "TRACKNUMBER=%tracknr%" -T "TRACKTOTAL=%numtracks%" -T "GENRE=%genre%" -T "COMMENT=%comment%" -T "PERFORMER=%albuminterpret%" -T "COMPOSER=%composer%" %source% -o %dest%
    TOC of the extracted CD
    Track | Start | Length | Start sector | End sector
    ---------------------------------------------------------
    1 | 0:00.00 | 20:47.25 | 0 | 93549
    2 | 20:47.25 | 10:12.00 | 93550 | 139449
    3 | 30:59.25 | 15:51.00 | 139450 | 210774
    4 | 46:50.25 | 20:28.02 | 210775 | 302876
    Range status and errors
    Selected range
    Filename G:\Ripped general\[3572] A.Rubinstein – Piano Concerto 5, Caprice russe – Banowetz\A.Rubinstein – Piano Concerto 5, Caprice russe – Banowetz.wav
    Peak level 94.4 %
    Extraction speed 3.2 X
    Range quality 100.0 %
    Test CRC E25F6CD6
    Copy CRC E25F6CD6
    Copy OK
    No errors occurred
    AccurateRip summary
    Track 1 accurately ripped (confidence 3) [1E887DF6] (AR v1)
    Track 2 accurately ripped (confidence 3) [03AB7A3F] (AR v1)
    Track 3 accurately ripped (confidence 3) [9A25E2F6] (AR v1)
    Track 4 accurately ripped (confidence 3) [5247D0FC] (AR v1)
    All tracks accurately ripped
    End of status report

    auCDtect Task Manager logs / Отчёты auCDtect Task ManagerCD 1: Концерты №№ 1 и 2

    -----------------------
    DON'T MODIFY THIS FILE
    -----------------------
    PERFORMER: auCDtect Task Manager, ver. 1.5.1RC3 build 1.5.1.4
    Copyright (c) 2008-2010 y-soft. All rights reserved
    ANALYZER: auCDtect: CD records authenticity detector, version 0.8.2
    Copyright (c) 2004 Oleg Berngardt. All rights reserved.
    Copyright (c) 2004 Alexander Djourik. All rights reserved.
    FILE: CD 1 - Concertos Nos. 1, 2.flac
    Size: 302081881 Hash: 7C8E978ED48F15FF3AB322EF72029B6E Accuracy: -m0
    Conclusion: CDDA 100%
    Signature: 2E145AF61A1CC019F6BFF65A6C6AC034A8B0A42E

    CD 2: Концерты №№ 3 и 4

    -----------------------
    DON'T MODIFY THIS FILE
    -----------------------
    PERFORMER: auCDtect Task Manager, ver. 1.5.1RC3 build 1.5.1.4
    Copyright (c) 2008-2010 y-soft. All rights reserved
    ANALYZER: auCDtect: CD records authenticity detector, version 0.8.2
    Copyright (c) 2004 Oleg Berngardt. All rights reserved.
    Copyright (c) 2004 Alexander Djourik. All rights reserved.
    FILE: CD 2 - Concertos Nos. 3, 4.flac
    Size: 246978396 Hash: E7331EA3C4B69218747C46AA88F696D2 Accuracy: -m0
    Conclusion: CDDA 100%
    Signature: C1BE2FEB80DD57922032C611188C946C2C397759

    CD 3: Концерт № 5 • Русское каприччио

    -----------------------
    DON'T MODIFY THIS FILE
    -----------------------
    PERFORMER: auCDtect Task Manager, ver. 1.5.1RC3 build 1.5.1.4
    Copyright (c) 2008-2010 y-soft. All rights reserved
    ANALYZER: auCDtect: CD records authenticity detector, version 0.8.2
    Copyright (c) 2004 Oleg Berngardt. All rights reserved.
    Copyright (c) 2004 Alexander Djourik. All rights reserved.
    FILE: CD 3 - Concerto No. 5, Caprice russe.flac
    Size: 254017373 Hash: 4DBDCBC7E4AA3D3E31925AD3B7F065DE Accuracy: -m0
    Conclusion: CDDA 99%
    Signature: E02F7249338C38FDF53C3632A26524F0948D4B9D

    CUETools logs / Отчёты CUEToolsCD 1: Концерты №№ 1 и 2

    [CUETools log; Date: 15.11.2013 02:13:55; Version: 2.1.4]
    [AccurateRip ID: 001399df-0067f44f-40129006] found.
    Track [ CRC | V2 ] Status
    01 [4812ec14|1aab8606] (0+0/4) No match
    02 [89c65c33|f60fdbcc] (0+0/4) No match
    03 [c941e64d|b986bcdc] (0+0/4) No match
    04 [c222e0e1|be331129] (0+0/4) No match
    05 [83df4b9e|2f6847a2] (0+0/4) No match
    06 [5cb567c3|7aebf1c2] (0+0/4) No match
    Offsetted by -681:
    01 [3d1688cd] (2/4) Accurately ripped
    02 [a7379611] (2/4) Accurately ripped
    03 [47b39f42] (2/4) Accurately ripped
    04 [078e699e] (2/4) Accurately ripped
    05 [c135e1e3] (2/4) Accurately ripped
    06 [0b73e776] (2/4) Accurately ripped
    Track Peak [ CRC32 ] [W/O NULL] [ LOG ]
    -- 100,0 [72394553] [0C58C7DE] CRC32
    01 100,0 [482120FA] [8502B5DC]
    02 51,0 [858EFF85] [C35B5ADB]
    03 94,8 [D0CE7E74] [7F177466]
    04 80,0 [590D161E] [5254359F]
    05 49,8 [E375D043] [9E51229A]
    06 99,3 [50FA3278] [700FDB8D]

    CD 2: Концерты №№ 3 и 4

    [CUETools log; Date: 15.11.2013 02:14:05; Version: 2.1.4]
    [AccurateRip ID: 000f684e-0052dbb3-4b0f3f06] found.
    Track [ CRC | V2 ] Status
    01 [7c9751ea|193dee13] (2+0/2) Accurately ripped
    02 [11ea2155|fdfd9294] (2+0/2) Accurately ripped
    03 [08d5a875|034aacd8] (2+0/2) Accurately ripped
    04 [8a7f25e7|0d3cc0d0] (2+0/2) Accurately ripped
    05 [61029e19|d4c4e77f] (2+0/2) Accurately ripped
    06 [4a5aea0e|9ddf5137] (2+0/2) Accurately ripped
    Track Peak [ CRC32 ] [W/O NULL] [ LOG ]
    -- 99,9 [F59CA57D] [E1F877BD] CRC32
    01 98,2 [7975FB99] [44B05C42]
    02 56,7 [798C3710] [42042607]
    03 97,0 [252E8249] [459CFBFF]
    04 94,3 [E9C74C08] [5A0A3AC8]
    05 48,2 [D0AD5E18] [95AFC8E0]
    06 99,9 [DACB1B33] [7EB2843C]

    CD 3: Концерт № 5 • Русское каприччио

    [CUETools log; Date: 15.11.2013 02:14:15; Version: 2.1.4]
    [AccurateRip ID: 000b649c-002d35f8-2f0fc604] found.
    Track [ CRC | V2 ] Status
    01 [1e887df6|a7d00ccf] (3+0/3) Accurately ripped
    02 [03ab7a3f|3352fd52] (3+0/3) Accurately ripped
    03 [9a25e2f6|d2ba5932] (3+0/3) Accurately ripped
    04 [5247d0fc|3f971c26] (3+0/3) Accurately ripped
    Track Peak [ CRC32 ] [W/O NULL] [ LOG ]
    -- 94,4 [E25F6CD6] [FA2EF581] CRC32
    01 89,5 [B71A784B] [AB80F6CB]
    02 42,7 [EB312A52] [59069D7D]
    03 89,1 [26F4AF18] [CEFF5D94]
    04 94,4 [ACB1C227] [8567038D]

    CUE sheetsCD 1: Концерты №№ 1 и 2

    TITLE "Anton Rubinstein. The Piano Concertos • Caprice russe"
    PERFORMER "Joseph Banowetz"
    REM GENRE Classical
    REM DISCID 40129006
    REM COMMENT "ExactAudioCopy v1.0b3"
    FILE "CD 1 - Concertos Nos. 1, 2.flac" WAVE
    TRACK 01 AUDIO
    TITLE "Piano Concerto No. 1 in E minor, Op. 25: I. Moderato"
    PERFORMER "Joseph Banowetz, Štátna filharmónia Košice. Alfred Walter, conductor"
    REM DATE 1992
    INDEX 01 00:00:00
    TRACK 02 AUDIO
    TITLE "Piano Concerto No. 1 in E minor, Op. 25: II. Andante con moto"
    PERFORMER "Joseph Banowetz, Štátna filharmónia Košice. Alfred Walter, conductor"
    REM DATE 1992
    INDEX 01 17:07:40
    TRACK 03 AUDIO
    TITLE "Piano Concerto No. 1 in E minor, Op. 25: III. Con moto"
    PERFORMER "Joseph Banowetz, Štátna filharmónia Košice. Alfred Walter, conductor"
    REM DATE 1992
    INDEX 01 25:29:25
    TRACK 04 AUDIO
    TITLE "Piano Concerto No. 2 in F major, Op. 35: I. Allegro vivace assai"
    PERFORMER "Joseph Banowetz, Štátna filharmónia Košice. Alfred Walter, conductor"
    REM DATE 1992
    INDEX 00 37:59:32
    INDEX 01 38:01:25
    TRACK 05 AUDIO
    TITLE "Piano Concerto No. 2 in F major, Op. 35: II. Adagio non troppo"
    PERFORMER "Joseph Banowetz, Štátna filharmónia Košice. Alfred Walter, conductor"
    REM DATE 1992
    INDEX 01 57:01:25
    TRACK 06 AUDIO
    TITLE "Piano Concerto No. 2 in F major, Op. 35: III. Moderato"
    PERFORMER "Joseph Banowetz, Štátna filharmónia Košice. Alfred Walter, conductor"
    REM DATE 1992
    INDEX 01 68:35:25

    CD 2: Концерты №№ 3 и 4

    TITLE "Anton Rubinstein. The Piano Concertos • Caprice russe"
    PERFORMER "Joseph Banowetz"
    REM GENRE Classical
    REM DISCID 4B0F3F06
    REM COMMENT "ExactAudioCopy v1.0b3"
    FILE "CD 2 - Concertos Nos. 3, 4.flac" WAVE
    TRACK 01 AUDIO
    TITLE "Piano Concerto No. 3 in G major, Op. 45: I. Moderato assai"
    PERFORMER "Joseph Banowetz, Štátna filharmónia Košice. Robert Stankovsky, conductor"
    REM DATE 1991
    INDEX 01 00:00:00
    TRACK 02 AUDIO
    TITLE "Piano Concerto No. 3 in G major, Op. 45: II. Moderato"
    PERFORMER "Joseph Banowetz, Štátna filharmónia Košice. Robert Stankovsky, conductor"
    REM DATE 1991
    INDEX 00 11:10:47
    INDEX 01 11:13:25
    TRACK 03 AUDIO
    TITLE "Piano Concerto No. 3 in G major, Op. 45: III. Allegro non troppo"
    PERFORMER "Joseph Banowetz, Štátna filharmónia Košice. Robert Stankovsky, conductor"
    REM DATE 1991
    INDEX 00 17:49:65
    INDEX 01 17:52:25
    TRACK 04 AUDIO
    TITLE "Piano Concerto No. 4 in D minor, Op. 70: I. Moderato assai"
    PERFORMER "Joseph Banowetz, Štátna filharmónia Košice. Robert Stankovsky, conductor"
    REM DATE 1991
    INDEX 00 31:15:25
    INDEX 01 31:19:25
    TRACK 05 AUDIO
    TITLE "Piano Concerto No. 4 in D minor, Op. 70: II. Andante"
    PERFORMER "Joseph Banowetz, Štátna filharmónia Košice. Robert Stankovsky, conductor"
    REM DATE 1991
    INDEX 00 43:28:42
    INDEX 01 43:31:25
    TRACK 06 AUDIO
    TITLE "Piano Concerto No. 4 in D minor, Op. 70: III. Allegro"
    PERFORMER "Joseph Banowetz, Štátna filharmónia Košice. Robert Stankovsky, conductor"
    REM DATE 1991
    INDEX 00 55:21:00
    INDEX 01 55:23:25

    CD 3: Концерт № 5 • Русское каприччио

    TITLE "Anton Rubinstein. The Piano Concertos • Caprice russe"
    PERFORMER "Joseph Banowetz"
    REM GENRE Classical
    REM DISCID 2F0FC604
    REM COMMENT "ExactAudioCopy v1.0b3"
    FILE "CD 3 - Concerto No. 5, Caprice russe.flac" WAVE
    TRACK 01 AUDIO
    TITLE "Piano Concerto No. 5 in E flat major, Op. 94: I. Allegro moderato"
    PERFORMER "Joseph Banowetz, Symfonický orchester Slovenského rozhlasu (Bratislava). Robert Stankovsky, conductor"
    REM DATE 1993
    INDEX 01 00:00:00
    TRACK 02 AUDIO
    TITLE "Piano Concerto No. 5 in E flat major, Op. 94: II. Andante"
    PERFORMER "Joseph Banowetz, Symfonický orchester Slovenského rozhlasu (Bratislava). Robert Stankovsky, conductor"
    REM DATE 1993
    INDEX 01 20:47:25
    TRACK 03 AUDIO
    TITLE "Piano Concerto No. 5 in E flat major, Op. 94: III. Allegro"
    PERFORMER "Joseph Banowetz, Symfonický orchester Slovenského rozhlasu (Bratislava). Robert Stankovsky, conductor"
    REM DATE 1993
    INDEX 01 30:59:25
    TRACK 04 AUDIO
    TITLE "Caprice russe (Русское каприччио) in C minor, Op. 102"
    PERFORMER "Joseph Banowetz, Symfonický orchester Slovenského rozhlasu (Bratislava). Robert Stankovsky, conductor"
    REM DATE 1993
    INDEX 00 46:44:30
    INDEX 01 46:50:25
    -
    Антон Рубинштейн — Фантазия • Концертино (Joseph Banowetz)Все мои раздачи / All my releases
    [teatrix.ru].t17845.torrent 
    Торрент: Зарегистрирован [ 2016-03-17 00:49 ] · 9C01B504C50AE41424315ABE6393FEA32068880E

    Скачать .torrent

    Скачать

    20 KB

    Статус: проверено
    Скачан: 0 раз
    Размер: 800 MB
    terms.php



  • Быстрый ответ

    Имя:

          
    Для отправки сообщений необходимо включить JavaScript
    Показать сообщения:    

    Текущее время: 11-Дек 05:18

    Часовой пояс: UTC + 3


    Вы можете начинать темы
    Вы можете отвечать на сообщения
    Вы не можете редактировать свои сообщения
    Вы не можете удалять свои сообщения
    Вы не можете голосовать в опросах
    Вы не можете прикреплять файлы к сообщениям
    Вы можете скачивать файлы