Иосиф Бродский. Бобо (Андрей Никишин) [1992, фильм-концерт, DVB]


Статистика раздачи [Обновить пиров]
Размер:  1.28 GB   |    Зарегистрирован:  8 месяцев 19 дней   |    Скачан:  0 раз

Полного источника не было: Никогда

 
   
 
 
 

[Цитировать]

Бобо
Иосиф Бродский- Год выпуска: 1992
Страна: Россия
Жанр: фильм-концерт
Продолжительность: 00:35:52
Перевод: Не требуется
Русские субтитры: нет
Режиссер: Андрей НикишинОписание: Вступительное слово режиссера Романа Виктюка.
Режиссер-документалист Андрей Никишин, одним из первых коснувшийся в кино таких больных тем как проституция и наркомания, затем снискавший громкую известность фильмом, созданным по следам кровавых событий в Прибалтике, обратился вдруг к жанру фильма-концерта. Правда, сами создатели ленты считают, что их фильм "Бобо" ни к какому определенному жанру не относится. И во многом они правы, хотя все-таки в центре фильма певец Юрий Балабанов, исполняющий свои песни на стихи Иосифа Бродского: "Похороны Бобо", "Пророчество", Сретенье", - положенные в основу трех новелл, объединенных в фильме не столько сюжетом, и даже не столько именем Бродского, сколько именем и личностью автора песен, композитора и певца Юрия Балабанова.
Юрий Балабанов закончил курс оперного режиссера Бориса Покровского в ГИТИСе. Несколько лет проработал в Театре Покровского - исполнял главные партии в оперных постановках последнего. Но потом из театра ушел и отдал все время сочинению песен. На стихи Бродского в основном, но и на свои стихи также. В этом фильме, по сути, первый выход Юрия Балабанова на широкую аудиторию.
Доп. информация: Запись со спутника (телеканал "Ностальгия").
Награда: Гран-при на фестивале Самюэля Беккета в Голландии в 1994 году.
Сэмпл: http://multi-up.com/923713
качество: DVB
формат: MPEG-PS (См. при проблемах с просмотром видео)
Видео: MPEG Video 2, 720x576@768x576 (4:3), 25 fps, ~4800 kbps avg, 0.463 bit/pixel
Аудио: 48 kHz, MPEG Audio 2, 2 ch, ~192.00 kbps avg

MediaInfo

Полное имя                               : H:\My Torrents\[apreder]Bobo(1992)DVB.mpg
Формат : MPEG-PS
Размер файла : 1,28 Гбайт
Продолжительность : 35 м.
Режим общего битрейта : Переменный
Общий поток : 5093 Кбит/сек
Видео
Идентификатор : 224 (0xE0)
Формат : MPEG Video
Версия формата : Version 2
Профиль формата : Main@Main
Параметр BVOP формата : Да
Параметр матрицы формата : Выборочная
Параметр GOP формата : M=3, N=36
Продолжительность : 35 м.
Вид битрейта : Переменный
Битрейт : 4800 Кбит/сек
Ширина : 720 пикселей
Высота : 576 пикселей
Соотношение сторон : 4:3
Частота кадров : 25,000 кадров/сек
Стандарт вещания : PAL
Цветовое пространство : YUV
Субдискретизация насыщенности : 4:2:0
Битовая глубина : 8 бит
Тип развёртки : Чересстрочная
Порядок развёртки : Верхнее поле первое
Метод сжатия : С потерями
Бит/(Пиксели*Кадры) : 0.463
Временной код первого кадра : 00:00:00:00
Оригинал временного кода : Group of pictures header
Размер потока : 1,20 Гбайт (94%)
Аудио
Идентификатор : 192 (0xC0)
Формат : MPEG Audio
Версия формата : Version 1
Профиль формата : Layer 2
Продолжительность : 35 м.
Вид битрейта : Постоянный
Битрейт : 192 Кбит/сек
Каналы : 2 канала
Частота : 48,0 КГц
Метод сжатия : С потерями
Размер потока : 49,3 Мбайт (4%)

Скриншоты


Резервные скриншоты


-1'053/1'035√
[teatrix.ru].t17847.torrent 
Торрент: Зарегистрирован [ 2016-03-17 00:49 ] · F5415FF81542FBD873EC16397B99F20E04EDB7BC

Скачать .torrent

Скачать

13 KB

Статус: проверено
Скачан: 0 раз
Размер: 1.28 GB
terms.php



Быстрый ответ

Имя:

      
Для отправки сообщений необходимо включить JavaScript
Показать сообщения:    

Текущее время: 05-Дек 13:28

Часовой пояс: UTC + 3


Вы можете начинать темы
Вы можете отвечать на сообщения
Вы не можете редактировать свои сообщения
Вы не можете удалять свои сообщения
Вы не можете голосовать в опросах
Вы не можете прикреплять файлы к сообщениям
Вы можете скачивать файлы