(Classical) Claude Debussy - Clair de lune (melodies de jeunesse) / Клод Дебюсси - Лунный свет (ранние песни) (Natalie Dessay, Philippe Cassard, Catherine Michel, Karine Deshayes, Le jeune choeur de Paris, 2011) - 2012, FLAC (tracks+.cue) lossless


 

[Цитировать]

Claude Debussy | Клод Дебюсси
(1862–1918)



Clair de lune | Лунный свет
Mélodies de jeunesse


Natalie Dessay sopranoPhilippe Cassard piano
avec
Karine Deshayes mezzo-sopranoCatherine Michel harp
Le jeune chœur de Paris. Henri Chalet direction


Жанр: Classical / Vocal
Дата и место записи: Salle Colonne, Paris, France, 12, 13, 22–25 November 2011
Формат записи: DDD, Stereo
Год издания диска: 2012
Издатель (лейбл): EMI
Номер по каталогу: 50999 730768 2 7
Аудиокодек: FLAC
Тип рипа: tracks+.cue
Битрейт аудио: lossless
Продолжительность: 1:12:55
Наличие сканов в содержимом раздачи: да
Источник: What.CD
Релизёр: dtromp

-Tracklist / Треклист
Nuit d'étoiles (Banville) - 3:09
  • Pantomime (Verlaine) - 2:32
  • Clair de lune (Verlaine) - 2:31
  • Pierrot (Banville) - 1:51
  • Apparition (Mallarmé) - 3:20
  • En sourdine (Verlaine) - 2:44
  • Fête galante (Banville) - 2:03
  • Romance (L'Ame évaporée) (Bourget) - 1:54
  • Les Cloches (Bourget) - 1:48
  • Rondel chinois (Dillard) - 3:13
  • Flots, palmes, sables (Renaud) - 4:55
  • Le Romance d'Ariel (Bourget) - 4:31
  • Regret (Bourget) - 2:36
  • Le Matelot qui tombe à l'eau (Bouchor) - 1:17
  • Coquetterie posthume (Gautier) - 3:43
  • L'Archet (Cros) - 2:59
  • Romance (Bouchor) - 1:45
  • Les Elfes (Leconte de Lisle) - 7:20
  • La Damoiselle élue (Rosetti) - 18:44
    _____
    Catherine Michel (harp) [11]
    Karine Deshayes (mezzo-soprano), Le jeune chœur de Paris (Henri Chalet, direction) [19]
    -

    EAC log / Отчёт EAC

    Exact Audio Copy V1.0 beta 3 from 29. August 2011
    EAC extraction logfile from 21. July 2012, 10:17
    Debussy / Clair de Lune
    Used drive : PLEXTOR DVDR PX-860A Adapter: 0 ID: 0
    Read mode : Secure
    Utilize accurate stream : Yes
    Defeat audio cache : Yes
    Make use of C2 pointers : No
    Read offset correction : 96
    Overread into Lead-In and Lead-Out : No
    Fill up missing offset samples with silence : Yes
    Delete leading and trailing silent blocks : No
    Null samples used in CRC calculations : Yes
    Used interface : Native Win32 interface for Win NT & 2000
    Gap handling : Appended to previous track
    Used output format : User Defined Encoder
    Selected bitrate : 1024 kBit/s
    Quality : High
    Add ID3 tag : No
    Command line compressor : C:\Program Files\Exact Audio Copy 3\flac.exe
    Additional command line options : -8 -V -T "ARTIST=%artist%" -T "TITLE=%title%" -T "ALBUM=%albumtitle%" -T "DATE=%year%" -T "TRACKNUMBER=%tracknr%" -T "GENRE=%genre%" -T "PERFORMER=%albuminterpret%" -T "COMPOSER=%composer%" %haslyrics%--tag-from-file=LYRICS="%lyricsfile%"%haslyrics% -T "ALBUMARTIST=%albumartist%" -T "DISCNUMBER=%cdnumber%" -T "TOTALDISCS=%totalcds%" -T "TOTALTRACKS=%numtracks%" -T "COMMENT=EAC Secure Mode, Test & Copy, AccurateRip, FLAC -8" %source% -o %dest%
    TOC of the extracted CD
    Track | Start | Length | Start sector | End sector
    ---------------------------------------------------------
    1 | 0:00.00 | 3:09.13 | 0 | 14187
    2 | 3:09.13 | 2:32.05 | 14188 | 25592
    3 | 5:41.18 | 2:31.07 | 25593 | 36924
    4 | 8:12.25 | 1:51.00 | 36925 | 45249
    5 | 10:03.25 | 3:19.54 | 45250 | 60228
    6 | 13:23.04 | 2:43.60 | 60229 | 72513
    7 | 16:06.64 | 2:03.21 | 72514 | 81759
    8 | 18:10.10 | 1:53.68 | 81760 | 90302
    9 | 20:04.03 | 1:47.61 | 90303 | 98388
    10 | 21:51.64 | 3:13.20 | 98389 | 112883
    11 | 25:05.09 | 4:54.74 | 112884 | 135007
    12 | 30:00.08 | 4:30.66 | 135008 | 155323
    13 | 34:30.74 | 2:35.46 | 155324 | 166994
    14 | 37:06.45 | 1:17.34 | 166995 | 172803
    15 | 38:24.04 | 3:42.51 | 172804 | 189504
    16 | 42:06.55 | 2:58.55 | 189505 | 202909
    17 | 45:05.35 | 1:45.19 | 202910 | 210803
    18 | 46:50.54 | 7:19.61 | 210804 | 243789
    19 | 54:10.40 | 18:44.03 | 243790 | 328092
    Track 1
    Filename I:\DL\Debussy - Clair de Lune (2012) [FLAC]\01 - Nuit d'etoiles.wav
    Pre-gap length 0:00:02.00
    Peak level 68.3 %
    Extraction speed 4.3 X
    Track quality 100.0 %
    Test CRC 0C9B4FBF
    Copy CRC 0C9B4FBF
    Accurately ripped (confidence 2) [868BBF4C] (AR v2)
    Copy OK
    Track 2
    Filename I:\DL\Debussy - Clair de Lune (2012) [FLAC]\02 - Pantomime.wav
    Pre-gap length 0:00:02.80
    Peak level 68.6 %
    Extraction speed 3.7 X
    Track quality 99.9 %
    Test CRC 55BB92D8
    Copy CRC 55BB92D8
    Accurately ripped (confidence 2) [781B4D81] (AR v2)
    Copy OK
    Track 3
    Filename I:\DL\Debussy - Clair de Lune (2012) [FLAC]\03 - Clair De Lune.wav
    Pre-gap length 0:00:05.89
    Peak level 37.4 %
    Extraction speed 4.6 X
    Track quality 100.0 %
    Test CRC BAFAF385
    Copy CRC BAFAF385
    Accurately ripped (confidence 2) [FA665FBE] (AR v2)
    Copy OK
    Track 4
    Filename I:\DL\Debussy - Clair de Lune (2012) [FLAC]\04 - Pierrot.wav
    Pre-gap length 0:00:02.66
    Peak level 68.2 %
    Extraction speed 4.5 X
    Track quality 100.0 %
    Test CRC 7E470921
    Copy CRC 7E470921
    Accurately ripped (confidence 2) [D4F7C8AF] (AR v2)
    Copy OK
    Track 5
    Filename I:\DL\Debussy - Clair de Lune (2012) [FLAC]\05 - Apparition.wav
    Pre-gap length 0:00:00.84
    Peak level 68.7 %
    Extraction speed 5.2 X
    Track quality 100.0 %
    Test CRC F61F09B1
    Copy CRC F61F09B1
    Accurately ripped (confidence 2) [F4BF0BFB] (AR v2)
    Copy OK
    Track 6
    Filename I:\DL\Debussy - Clair de Lune (2012) [FLAC]\06 - En Sourdine.wav
    Pre-gap length 0:00:03.17
    Peak level 40.9 %
    Extraction speed 5.3 X
    Track quality 100.0 %
    Test CRC 1B69F3ED
    Copy CRC 1B69F3ED
    Accurately ripped (confidence 2) [67B9B633] (AR v2)
    Copy OK
    Track 7
    Filename I:\DL\Debussy - Clair de Lune (2012) [FLAC]\07 - Fete galante.wav
    Pre-gap length 0:00:03.60
    Peak level 41.5 %
    Extraction speed 5.2 X
    Track quality 100.0 %
    Test CRC 6894FE5A
    Copy CRC 6894FE5A
    Accurately ripped (confidence 2) [A2104A49] (AR v2)
    Copy OK
    Track 8
    Filename I:\DL\Debussy - Clair de Lune (2012) [FLAC]\08 - Romance (L'Ame Evaporee).wav
    Pre-gap length 0:00:03.76
    Peak level 40.0 %
    Extraction speed 5.0 X
    Track quality 100.0 %
    Test CRC D5E697E5
    Copy CRC D5E697E5
    Accurately ripped (confidence 2) [593B3A39] (AR v2)
    Copy OK
    Track 9
    Filename I:\DL\Debussy - Clair de Lune (2012) [FLAC]\09 - Les Cloches.wav
    Pre-gap length 0:00:01.93
    Peak level 57.3 %
    Extraction speed 5.2 X
    Track quality 100.0 %
    Test CRC 9DF1B3B0
    Copy CRC 9DF1B3B0
    Accurately ripped (confidence 2) [A53E871B] (AR v2)
    Copy OK
    Track 10
    Filename I:\DL\Debussy - Clair de Lune (2012) [FLAC]\10 - Rondel Chinois.wav
    Pre-gap length 0:00:03.30
    Peak level 40.5 %
    Extraction speed 6.1 X
    Track quality 100.0 %
    Test CRC 7B670534
    Copy CRC 7B670534
    Accurately ripped (confidence 2) [D8D0578F] (AR v2)
    Copy OK
    Track 11
    Filename I:\DL\Debussy - Clair de Lune (2012) [FLAC]\11 - Flots, Palmes, Sables.wav
    Pre-gap length 0:00:03.18
    Peak level 57.5 %
    Extraction speed 6.8 X
    Track quality 100.0 %
    Test CRC E74EDAB9
    Copy CRC E74EDAB9
    Accurately ripped (confidence 2) [37B05D57] (AR v2)
    Copy OK
    Track 12
    Filename I:\DL\Debussy - Clair de Lune (2012) [FLAC]\12 - Le Romance d'Ariel.wav
    Pre-gap length 0:00:03.34
    Peak level 64.0 %
    Extraction speed 6.2 X
    Track quality 99.9 %
    Test CRC BB095587
    Copy CRC BB095587
    Accurately ripped (confidence 2) [294D764B] (AR v2)
    Copy OK
    Track 13
    Filename I:\DL\Debussy - Clair de Lune (2012) [FLAC]\13 - Regret.wav
    Pre-gap length 0:00:04.76
    Peak level 66.2 %
    Extraction speed 6.5 X
    Track quality 100.0 %
    Test CRC 6C18A211
    Copy CRC 6C18A211
    Accurately ripped (confidence 2) [FDC9227F] (AR v2)
    Copy OK
    Track 14
    Filename I:\DL\Debussy - Clair de Lune (2012) [FLAC]\14 - Le Matelot qui tombe a l'eau (World premiere).wav
    Pre-gap length 0:00:00.88
    Peak level 25.3 %
    Extraction speed 5.5 X
    Track quality 100.0 %
    Test CRC CFB6C476
    Copy CRC CFB6C476
    Accurately ripped (confidence 2) [063BEC41] (AR v2)
    Copy OK
    Track 15
    Filename I:\DL\Debussy - Clair de Lune (2012) [FLAC]\15 - Coquetterie posthume.wav
    Pre-gap length 0:00:00.86
    Peak level 68.6 %
    Extraction speed 7.2 X
    Track quality 100.0 %
    Test CRC D5FA3426
    Copy CRC D5FA3426
    Accurately ripped (confidence 2) [28FBA61F] (AR v2)
    Copy OK
    Track 16
    Filename I:\DL\Debussy - Clair de Lune (2012) [FLAC]\16 - L'Archet (World premiere).wav
    Pre-gap length 0:00:02.13
    Peak level 49.4 %
    Extraction speed 7.2 X
    Track quality 100.0 %
    Test CRC B74C97ED
    Copy CRC B74C97ED
    Accurately ripped (confidence 2) [2095D8D8] (AR v2)
    Copy OK
    Track 17
    Filename I:\DL\Debussy - Clair de Lune (2012) [FLAC]\17 - Romance (World premiere).wav
    Pre-gap length 0:00:02.46
    Peak level 50.7 %
    Extraction speed 5.2 X
    Track quality 99.8 %
    Test CRC 3E24471F
    Copy CRC 3E24471F
    Accurately ripped (confidence 2) [323024C4] (AR v2)
    Copy OK
    Track 18
    Filename I:\DL\Debussy - Clair de Lune (2012) [FLAC]\18 - Les Elfes (World premiere).wav
    Pre-gap length 0:00:01.22
    Peak level 68.2 %
    Extraction speed 8.3 X
    Track quality 100.0 %
    Test CRC B648C4CC
    Copy CRC B648C4CC
    Accurately ripped (confidence 2) [C182D880] (AR v2)
    Copy OK
    Track 19
    Filename I:\DL\Debussy - Clair de Lune (2012) [FLAC]\19 - La Damoiselle elue.wav
    Pre-gap length 0:00:04.36
    Peak level 76.3 %
    Extraction speed 6.3 X
    Track quality 100.0 %
    Test CRC 8F549C15
    Copy CRC 8F549C15
    Accurately ripped (confidence 2) [537B4CF0] (AR v2)
    Copy OK
    All tracks accurately ripped
    No errors occurred
    End of status report
    ---- CUETools DB Plugin V2.1.3
    [CTDB TOCID: ytPMZCZLerxRYly4ZmDyb.R3gS4-] found, Submit result: ytPMZCZLerxRYly4ZmDyb.R3gS4- has been confirmed
    [0ca60f91] (4/4) Accurately ripped
    ==== Log checksum D881381F05E67F3F1680E73E565DC31510D62E0139FB4A135D389E16FCC7226A ====

    auCDtect Task Manager log / Отчёт auCDtect Task Manager

    -----------------------
    DON'T MODIFY THIS FILE
    -----------------------
    PERFORMER: auCDtect Task Manager, ver. 1.5.1RC3 build 1.5.1.4
    Copyright (c) 2008-2010 y-soft. All rights reserved
    ANALYZER: auCDtect: CD records authenticity detector, version 0.8.2
    Copyright (c) 2004 Oleg Berngardt. All rights reserved.
    Copyright (c) 2004 Alexander Djourik. All rights reserved.
    FILE: 19 - La Damoiselle elue (Rosetti).flac
    Size: 72989080 Hash: 5B8378BEB6965FB363A0C252DCF22282 Accuracy: -m0
    Conclusion: MPEG 100%
    Signature: B194C753EF51E16A6E635BD68C8F07DB68E52702
    FILE: 18 - Les Elfes (Leconte de Lisle).flac
    Size: 30790303 Hash: 4887C71A88FE48894CCD2D6E5B91B756 Accuracy: -m0
    Conclusion: MPEG 99%
    Signature: CF5D01197A3225E08E0989C263EDC66FC9E6E286
    FILE: 17 - Romance (Bouchor).flac
    Size: 7397723 Hash: 3C5E26A2330B5E4634496ABA2F298D6F Accuracy: -m0
    Conclusion: MPEG 91%
    Signature: EE013CB3E48FF122F6AAAB2BDF1FA35592BD0526
    FILE: 16 - L'Archet (Cros).flac
    Size: 11619371 Hash: DDE12C22244D0EA4D7CB462022B593A6 Accuracy: -m0
    Conclusion: MPEG 100%
    Signature: FAE6A6CEF34EA2449D55287900E9ED4B119B2B29
    FILE: 15 - Coquetterie posthume (Gautier).flac
    Size: 15725017 Hash: 36E79AEC1C79C6556DCFE5C42438C901 Accuracy: -m0
    Conclusion: MPEG 100%
    Signature: DA8E2A4B31C8A3856A6F0681536FB82A6307ADE2
    FILE: 14 - Le Matelot qui tombe a l'eau (Bouchor).flac
    Size: 4410571 Hash: 448BFA5E3846F6364193EA95715A0C2D Accuracy: -m0
    Conclusion: MPEG 100%
    Signature: 02DF930A522DE69DD1D43D2EFC17678FA0148E42
    FILE: 13 - Regret (Bourget).flac
    Size: 10392146 Hash: FFDDCC0B3B5999F3492EC5FF5D0882F4 Accuracy: -m0
    Conclusion: MPEG 99%
    Signature: F9CDFDA1B994AE93F3238F16F3E395D9FC5FB089
    FILE: 12 - Le Romance d'Ariel (Bourget).flac
    Size: 18622459 Hash: 3E249044B2E24C7063B2FB457ABD6AF6 Accuracy: -m0
    Conclusion: MPEG 100%
    Signature: 930D2602ED178CB8139CF5F385D686881BAEEC58
    FILE: 11 - Flots, palmes, sables (Renaud).flac
    Size: 20875515 Hash: B34E471BCA2EB80D5B557CAC8ABFF9A2 Accuracy: -m0
    Conclusion: MPEG 100%
    Signature: 29C062F412AE3650DE53889F470B8E95D7CFDD9F
    FILE: 10 - Rondel chinois (Dillard).flac
    Size: 12074811 Hash: C4F24F3D4EE2A4D4AE1B92EC5769A1F9 Accuracy: -m0
    Conclusion: MPEG 100%
    Signature: 72344B9F6EA39CB486FA3E50639FB06287635035
    FILE: 09 - Les Cloches (Bourget).flac
    Size: 6608808 Hash: 970B13D9087EDF7A5832671EF17765DA Accuracy: -m0
    Conclusion: MPEG 91%
    Signature: E36C190425EAF062F992BC58320577A9BEBBFE41
    FILE: 08 - Romance (L'Ame evaporee) (Bourget).flac
    Size: 7190100 Hash: 2EC191E2042474DCD0BDBB8FBEF9B744 Accuracy: -m0
    Conclusion: MPEG 100%
    Signature: 484625A8B92783A29B06472069150C27FCD4E6AA
    FILE: 07 - Fete galante (Banville).flac
    Size: 8164011 Hash: DFBDD3BE4B6BF3515864447A221F08D8 Accuracy: -m0
    Conclusion: MPEG 99%
    Signature: AAAE4663C6D12FE8ED7BC048B1C3633AB8C02B46
    FILE: 06 - En sourdine (Verlaine).flac
    Size: 10711417 Hash: 06E9C1E033061A3827B1042D5925641A Accuracy: -m0
    Conclusion: MPEG 100%
    Signature: BF3B72996E40E2A05B4CDE04EB656F394A910257
    FILE: 05 - Apparition (Mallarme).flac
    Size: 13010909 Hash: 047D6BEA7117F202805A1B7ABBDB1436 Accuracy: -m0
    Conclusion: MPEG 100%
    Signature: AEFB1C49A8BD53B9EC4F8D96282843E8C1880F7F
    FILE: 04 - Pierrot (Banville).flac
    Size: 7866190 Hash: 6CE96BF794EBB17AAB71F91DC64E8383 Accuracy: -m0
    Conclusion: MPEG 100%
    Signature: 21859E634BE6702864C5B8EB7C278FA903AA1DA4
    FILE: 03 - Clair de lune (Verlaine).flac
    Size: 9356903 Hash: C430AF8A0025EE298D30D8BA09DC54D4 Accuracy: -m0
    Conclusion: MPEG 100%
    Signature: 94906F78EB2664923EFA73C0494AD5E432EE93CA
    FILE: 02 - Pantomime (Verlaine).flac
    Size: 10617970 Hash: 84E5F2F8B0CB71E58B91C2783582A41D Accuracy: -m0
    Conclusion: MPEG 100%
    Signature: 27E5DA3424A11928811ED9EB591CDEF31375658C
    FILE: 01 - Nuit d'etoiles (Banville).flac
    Size: 12926599 Hash: 62F081D542BE9C2D5D6B0C48651C2950 Accuracy: -m0
    Conclusion: MPEG 100%
    Signature: C62F2AFEE2C6125AEB7A692A51BD88F76B097384

    Спектрограмма

    CUETools log / Отчёт CUETools

    [CUETools log; Date: 16.11.2013 11:45:58; Version: 2.1.4]
    [AccurateRip ID: 00254804-02174609-ea111613] found.
    Track [ CRC | V2 ] Status
    01 [8b64f88e|868bbf4c] (02+14/16) Accurately ripped
    02 [c4ed16b7|781b4d81] (02+14/16) Accurately ripped
    03 [a404f22c|fa665fbe] (02+14/16) Accurately ripped
    04 [28d5710a|d4f7c8af] (02+14/16) Accurately ripped
    05 [b4f06992|f4bf0bfb] (02+14/16) Accurately ripped
    06 [88f1912e|67b9b633] (02+14/16) Accurately ripped
    07 [8c3c2e92|a2104a49] (02+14/16) Accurately ripped
    08 [699b374d|593b3a39] (02+14/16) Accurately ripped
    09 [774ce0d4|a53e871b] (02+14/16) Accurately ripped
    10 [aaa9b52a|d8d0578f] (02+14/16) Accurately ripped
    11 [c07158ae|37b05d57] (02+14/16) Accurately ripped
    12 [4318c855|294d764b] (02+14/16) Accurately ripped
    13 [6822e9b2|fdc9227f] (02+14/16) Accurately ripped
    14 [ec3c188e|063bec41] (02+14/16) Accurately ripped
    15 [602b3bbc|28fba61f] (02+14/16) Accurately ripped
    16 [bfb3fbcf|2095d8d8] (02+14/16) Accurately ripped
    17 [e7707ddf|323024c4] (02+14/16) Accurately ripped
    18 [21454229|c182d880] (02+14/16) Accurately ripped
    19 [81527a78|537b4cf0] (02+14/16) Accurately ripped
    Track Peak [ CRC32 ] [W/O NULL] [ LOG ]
    -- 76,3 [8E4AFF80] [32BD88E3]
    01 68,3 [0C9B4FBF] [55B1415A] CRC32
    02 68,6 [55BB92D8] [BF518374] CRC32
    03 37,4 [BAFAF385] [D079F29A] CRC32
    04 68,2 [7E470921] [D65F5DB5] CRC32
    05 68,7 [F61F09B1] [39D88BA2] CRC32
    06 40,9 [1B69F3ED] [64A61EA3] CRC32
    07 41,5 [6894FE5A] [5B896636] CRC32
    08 40,0 [D5E697E5] [E19140BA] CRC32
    09 57,3 [9DF1B3B0] [B7CEDA8E] CRC32
    10 40,5 [7B670534] [E5FE4AC4] CRC32
    11 57,5 [E74EDAB9] [1CF42E97] CRC32
    12 64,0 [BB095587] [721FA262] CRC32
    13 66,2 [6C18A211] [15BEE0F7] CRC32
    14 25,3 [CFB6C476] [3279684B] CRC32
    15 68,6 [D5FA3426] [095A3764] CRC32
    16 49,4 [B74C97ED] [8B63BAE4] CRC32
    17 50,7 [3E24471F] [EE04BE12] CRC32
    18 68,2 [B648C4CC] [E8489DDD] CRC32
    19 76,3 [8F549C15] [BBFD8D0A] CRC32

    CUE sheet

    TITLE "Claude Debussy. «Clair de lune» (mélodies de jeunesse)"
    PERFORMER "Natalie Dessay"
    REM GENRE Classical
    REM DISCID EA111613
    REM COMMENT "ExactAudioCopy v1.0b3"
    CATALOG 5099973076926
    FILE "01 - Nuit d'etoiles (Banville).flac" WAVE
    TRACK 01 AUDIO
    TITLE "Nuit d'étoiles (Banville)"
    PERFORMER "Natalie Dessay (soprano), Philippe Cassard (piano)"
    REM DATE 2011
    INDEX 01 00:00:00
    TRACK 02 AUDIO
    TITLE "Pantomime (Verlaine)"
    PERFORMER "Natalie Dessay (soprano), Philippe Cassard (piano)"
    REM DATE 2011
    INDEX 00 03:06:28
    FILE "02 - Pantomime (Verlaine).flac" WAVE
    INDEX 01 00:00:00
    TRACK 03 AUDIO
    TITLE "Clair de lune (Verlaine)"
    PERFORMER "Natalie Dessay (soprano), Philippe Cassard (piano)"
    REM DATE 2011
    INDEX 00 02:26:13
    FILE "03 - Clair de lune (Verlaine).flac" WAVE
    INDEX 01 00:00:00
    TRACK 04 AUDIO
    TITLE "Pierrot (Banville)"
    PERFORMER "Natalie Dessay (soprano), Philippe Cassard (piano)"
    REM DATE 2011
    INDEX 00 02:28:32
    FILE "04 - Pierrot (Banville).flac" WAVE
    INDEX 01 00:00:00
    TRACK 05 AUDIO
    TITLE "Apparition (Mallarmé)"
    PERFORMER "Natalie Dessay (soprano), Philippe Cassard (piano)"
    REM DATE 2011
    INDEX 00 01:50:12
    FILE "05 - Apparition (Mallarme).flac" WAVE
    INDEX 01 00:00:00
    TRACK 06 AUDIO
    TITLE "En sourdine (Verlaine)"
    PERFORMER "Natalie Dessay (soprano), Philippe Cassard (piano)"
    REM DATE 2011
    INDEX 00 03:16:41
    FILE "06 - En sourdine (Verlaine).flac" WAVE
    INDEX 01 00:00:00
    TRACK 07 AUDIO
    TITLE "Fête galante (Banville)"
    PERFORMER "Natalie Dessay (soprano), Philippe Cassard (piano)"
    REM DATE 2011
    INDEX 00 02:40:15
    FILE "07 - Fete galante (Banville).flac" WAVE
    INDEX 01 00:00:00
    TRACK 08 AUDIO
    TITLE "Romance (L'Ame évaporée) (Bourget)"
    PERFORMER "Natalie Dessay (soprano), Philippe Cassard (piano)"
    REM DATE 2011
    INDEX 00 01:59:39
    FILE "08 - Romance (L'Ame evaporee) (Bourget).flac" WAVE
    INDEX 01 00:00:00
    TRACK 09 AUDIO
    TITLE "Les Cloches (Bourget)"
    PERFORMER "Natalie Dessay (soprano), Philippe Cassard (piano)"
    REM DATE 2011
    INDEX 00 01:51:73
    FILE "09 - Les Cloches (Bourget).flac" WAVE
    INDEX 01 00:00:00
    TRACK 10 AUDIO
    TITLE "Rondel chinois (Dillard)"
    PERFORMER "Natalie Dessay (soprano), Philippe Cassard (piano)"
    REM DATE 2011
    INDEX 00 01:44:38
    FILE "10 - Rondel chinois (Dillard).flac" WAVE
    INDEX 01 00:00:00
    TRACK 11 AUDIO
    TITLE "Flots, palmes, sables (Renaud)"
    PERFORMER "Natalie Dessay (soprano), Catherine Michel (harp), Philippe Cassard (piano)"
    REM DATE 2011
    INDEX 00 03:10:06
    FILE "11 - Flots, palmes, sables (Renaud).flac" WAVE
    INDEX 01 00:00:00
    TRACK 12 AUDIO
    TITLE "Le Romance d'Ariel (Bourget)"
    PERFORMER "Natalie Dessay (soprano), Philippe Cassard (piano)"
    REM DATE 2011
    INDEX 00 04:51:48
    FILE "12 - Le Romance d'Ariel (Bourget).flac" WAVE
    INDEX 01 00:00:00
    TRACK 13 AUDIO
    TITLE "Regret (Bourget)"
    PERFORMER "Natalie Dessay (soprano), Philippe Cassard (piano)"
    REM DATE 2011
    INDEX 00 04:26:09
    FILE "13 - Regret (Bourget).flac" WAVE
    INDEX 01 00:00:00
    TRACK 14 AUDIO
    TITLE "Le Matelot qui tombe à l'eau (Bouchor)"
    PERFORMER "Natalie Dessay (soprano), Philippe Cassard (piano)"
    REM DATE 2011
    INDEX 00 02:34:55
    FILE "14 - Le Matelot qui tombe a l'eau (Bouchor).flac" WAVE
    INDEX 01 00:00:00
    TRACK 15 AUDIO
    TITLE "Coquetterie posthume (Gautier)"
    PERFORMER "Natalie Dessay (soprano), Philippe Cassard (piano)"
    REM DATE 2011
    INDEX 00 01:16:44
    FILE "15 - Coquetterie posthume (Gautier).flac" WAVE
    INDEX 01 00:00:00
    TRACK 16 AUDIO
    TITLE "L'Archet (Cros)"
    PERFORMER "Natalie Dessay (soprano), Philippe Cassard (piano)"
    REM DATE 2011
    INDEX 00 03:40:41
    FILE "16 - L'Archet (Cros).flac" WAVE
    INDEX 01 00:00:00
    TRACK 17 AUDIO
    TITLE "Romance (Bouchor)"
    PERFORMER "Natalie Dessay (soprano), Philippe Cassard (piano)"
    REM DATE 2011
    INDEX 00 02:56:20
    FILE "17 - Romance (Bouchor).flac" WAVE
    INDEX 01 00:00:00
    TRACK 18 AUDIO
    TITLE "Les Elfes (Leconte de Lisle)"
    PERFORMER "Natalie Dessay (soprano), Philippe Cassard (piano)"
    REM DATE 2011
    INDEX 00 01:44:02
    FILE "18 - Les Elfes (Leconte de Lisle).flac" WAVE
    INDEX 01 00:00:00
    TRACK 19 AUDIO
    TITLE "La Damoiselle élue (Rosetti)"
    PERFORMER "Natalie Dessay (soprano), Karine Deshayes (mezzo-soprano), Le jeune chœur de Paris (Henri Chalet, dir.), Philippe Cassard (piano)"
    REM DATE 2011
    INDEX 00 07:15:34
    FILE "19 - La Damoiselle elue (Rosetti).flac" WAVE
    INDEX 01 00:00:00
    -
    Claude Debussy — каталог раздач на rutracker.orgВсе мои раздачи / All my releases



  • Показать сообщения:    

    Текущее время: 03-Дек 03:22

    Часовой пояс: UTC + 3


    Вы не можете начинать темы
    Вы не можете отвечать на сообщения
    Вы не можете редактировать свои сообщения
    Вы не можете удалять свои сообщения
    Вы не можете голосовать в опросах
    Вы не можете прикреплять файлы к сообщениям
    Вы не можете скачивать файлы