(Classical) Tchaikovsky / Чайковский - Concerto / Концерт Op.35; Bruch - Concerto Op.26; Sibelius - Concerto Op.47; Mendelssohn - Concerto Op.64; Bartok - Concerto No.2, Sonate for Solo Violin {Ivry Gitlis} (2CD) - 1992, FLAC (tracks+.cue), lossless


Статистика раздачи [Обновить пиров]
Размер:  530 MB   |    Зарегистрирован:  8 месяцев 17 дней   |    Скачан:  0 раз

Полного источника не было: Никогда

 
   
 
 
 

[Цитировать]

Ivry Gitlis - The Art of Ivry Gitlis
Жанр: Classical, Concerto
Страна-производитель диска: США
Год издания диска: 1992
Издатель (лейбл): VoxBox
Номер по каталогу: CDX2 5505
Дата записи: 1954-1957
Аудиокодек: FLAC
Тип рипа: tracks+.cue
Битрейт аудио: lossless
Продолжительность: 2:39:09
Источник (релизер): PCzar (what)
Наличие сканов в содержимом раздачи: да

CD1 {79:41}

Tchaikovsky: Violin Concerto in D Major, Op.35
01. I. Allegro moderato (16:03)
02. II. Canzonetta (6:06)
03. III. Finale: Allegro; Vivacissimo (7:39)
Bruch: Violin Concerto in G Minor, Op.26
04. I. Allegro moderato (7:45)
05. II. Adagio (7:51)
06. III. Finale: Allegro energico (6:18)
Sibelius: Violin Concerto in D Minor, Op.47
07. I. Allegro moderato (14:03)
08. II. Adagio di molto (7:02)
09. III. Allegro ma non tanto (6:54)

Лог создания рипа

Exact Audio Copy V1.0 beta 3 from 29. August 2011
EAC extraction logfile from 13. March 2013, 13:55
Ivry Gitlis, Vienna Symphony Orchestra / The Art of Ivry Gitlis (Cd1)
Used drive : TSSTcorpCDDVDW SH-222BB Adapter: 2 ID: 0
Read mode : Secure
Utilize accurate stream : Yes
Defeat audio cache : Yes
Make use of C2 pointers : No
Read offset correction : 6
Overread into Lead-In and Lead-Out : No
Fill up missing offset samples with silence : Yes
Delete leading and trailing silent blocks : No
Null samples used in CRC calculations : Yes
Used interface : Native Win32 interface for Win NT & 2000
Gap handling : Appended to previous track
Used output format : User Defined Encoder
Selected bitrate : 192 kBit/s
Quality : High
Add ID3 tag : No
Command line compressor : C:\Program Files (x86)\FLAC\flac.exe
Additional command line options : -T "artist=%artist%" -T "title=%title%" -T "album=%albumtitle%" -T "date=%year%" -T "tracknumber=%tracknr%" -T "genre=%genre%" -T "comment=%comment%" -T "composer=%composer%" -8 %source%
TOC of the extracted CD
Track | Start | Length | Start sector | End sector
---------------------------------------------------------
1 | 0:00.37 | 16:02.38 | 37 | 72224
2 | 16:03.00 | 6:06.35 | 72225 | 99709
3 | 22:09.35 | 7:39.30 | 99710 | 134164
4 | 29:48.65 | 7:45.37 | 134165 | 169076
5 | 37:34.27 | 7:50.63 | 169077 | 204389
6 | 45:25.15 | 6:18.15 | 204390 | 232754
7 | 51:43.30 | 14:03.12 | 232755 | 295991
8 | 65:46.42 | 7:01.60 | 295992 | 327626
9 | 72:48.27 | 6:54.08 | 327627 | 358684
Track 1
Filename H:\EAC NEW Rips\01 - Tchaikovsky, Violin Concerto D Major, Op. 35 - I. Allegro Moderato.wav
Pre-gap length 0:00:02.49
Peak level 90.9 %
Extraction speed 2.3 X
Track quality 100.0 %
Test CRC EA3F6463
Copy CRC EA3F6463
Accurately ripped (confidence 3) [EB6204D7] (AR v1)
Copy OK
Track 2
Filename H:\EAC NEW Rips\02 - Tchaikovsky, Violin Concerto D Major, Op. 35 - II. Canzonetta.wav
Peak level 51.7 %
Extraction speed 2.1 X
Track quality 100.0 %
Test CRC B109C11F
Copy CRC B109C11F
Accurately ripped (confidence 3) [E1EF2FC3] (AR v1)
Copy OK
Track 3
Filename H:\EAC NEW Rips\03 - Tchaikovsky, Violin Concerto D Major, Op. 35 - III. Finale. Allegro-Vivacissimo.wav
Peak level 76.7 %
Extraction speed 2.2 X
Track quality 100.0 %
Test CRC AD8B6165
Copy CRC AD8B6165
Accurately ripped (confidence 3) [1B937361] (AR v1)
Copy OK
Track 4
Filename H:\EAC NEW Rips\04 - Bruch, Violin Concerto in G Minor, Op. 26 - I. Allegro Moderato.wav
Pre-gap length 0:00:05.70
Peak level 87.3 %
Extraction speed 2.2 X
Track quality 100.0 %
Test CRC D4CE2678
Copy CRC D4CE2678
Accurately ripped (confidence 3) [E4B43A2B] (AR v1)
Copy OK
Track 5
Filename H:\EAC NEW Rips\05 - Bruch, Violin Concerto in G Minor, Op. 26 - II. Adagio.wav
Peak level 79.2 %
Extraction speed 2.2 X
Track quality 100.0 %
Test CRC 09120A73
Copy CRC 09120A73
Accurately ripped (confidence 3) [F7479DE1] (AR v1)
Copy OK
Track 6
Filename H:\EAC NEW Rips\06 - Bruch, Violin Concerto in G Minor, Op. 26 - III. Finale. Allegro energico.wav
Peak level 79.8 %
Extraction speed 2.1 X
Track quality 100.0 %
Test CRC 9D2FA08C
Copy CRC 9D2FA08C
Accurately ripped (confidence 3) [B48AD5CA] (AR v1)
Copy OK
Track 7
Filename H:\EAC NEW Rips\07 - Sibelius, Violin Concerto in D Minor Op. 47 - I. Allegro moderato.wav
Pre-gap length 0:00:05.06
Peak level 97.5 %
Extraction speed 2.2 X
Track quality 100.0 %
Test CRC 8AFCB519
Copy CRC 8AFCB519
Accurately ripped (confidence 3) [B684E520] (AR v1)
Copy OK
Track 8
Filename H:\EAC NEW Rips\08 - Sibelius, Violin Concerto in D Minor Op. 47 - II. Adagio di molto.wav
Peak level 79.9 %
Extraction speed 2.1 X
Track quality 100.0 %
Test CRC 9588B2C6
Copy CRC 9588B2C6
Accurately ripped (confidence 3) [91984AF5] (AR v1)
Copy OK
Track 9
Filename H:\EAC NEW Rips\09 - Sibelius, Violin Concerto in D Minor Op. 47 - III. Allegro ma non tanto.wav
Peak level 83.7 %
Extraction speed 2.1 X
Track quality 100.0 %
Test CRC A08CF59E
Copy CRC A08CF59E
Accurately ripped (confidence 3) [E154C3F4] (AR v1)
Copy OK
All tracks accurately ripped
No errors occurred
End of status report
==== Log checksum 78DEE73D9ACB4F903DE62582B373C499C23FFD6DE918A05458A445A89C5C3871 ====

Содержание индексной карты (.CUE)

REM GENRE Classical
REM DATE 1992
REM DISCID 7F12AE09
REM COMMENT "ExactAudioCopy v1.0b3"
PERFORMER "Ivry Gitlis"
TITLE "The Art of Ivry Gitlis CD1"
FILE "01 - Tchaikovsky- Violin Concerto in D Major, Op.35- I. Allegro moderato.wav" WAVE
TRACK 01 AUDIO
TITLE "Tchaikovsky: Violin Concerto in D Major, Op.35: I. Allegro moderato"
PERFORMER "Ivry Gitlis"
PREGAP 00:00:37
INDEX 01 00:00:00
FILE "02 - Tchaikovsky- Violin Concerto in D Major, Op.35- II. Canzonetta.wav" WAVE
TRACK 02 AUDIO
TITLE "Tchaikovsky: Violin Concerto in D Major, Op.35: II. Canzonetta"
PERFORMER "Ivry Gitlis"
INDEX 01 00:00:00
FILE "03 - Tchaikovsky- Violin Concerto in D Major, Op.35- III. Finale- Allegro, Vivacissimo.wav" WAVE
TRACK 03 AUDIO
TITLE "Tchaikovsky: Violin Concerto in D Major, Op.35: III. Finale: Allegro, Vivacissimo"
PERFORMER "Ivry Gitlis"
INDEX 01 00:00:00
TRACK 04 AUDIO
TITLE "Bruch: Violin Concerto in G Minor, Op.26: I. Allegro moderato"
PERFORMER "Ivry Gitlis"
INDEX 00 07:33:52
FILE "04 - Bruch- Violin Concerto in G Minor, Op.26- I. Allegro moderato.wav" WAVE
INDEX 01 00:00:00
FILE "05 - Bruch- Violin Concerto in G Minor, Op.26- II. Adagio.wav" WAVE
TRACK 05 AUDIO
TITLE "Bruch: Violin Concerto in G Minor, Op.26: II. Adagio"
PERFORMER "Ivry Gitlis"
INDEX 01 00:00:00
FILE "06 - Bruch- Violin Concerto in G Minor, Op.26- III. Finale- Allegro energico.wav" WAVE
TRACK 06 AUDIO
TITLE "Bruch: Violin Concerto in G Minor, Op.26: III. Finale: Allegro energico"
PERFORMER "Ivry Gitlis"
INDEX 01 00:00:00
TRACK 07 AUDIO
TITLE "Sibelius: Violin Concerto in D Minor Op.47: I. Allegro moderato"
PERFORMER "Ivry Gitlis"
INDEX 00 06:13:10
FILE "07 - Sibelius- Violin Concerto in D Minor Op.47- I. Allegro moderato.wav" WAVE
INDEX 01 00:00:00
FILE "08 - Sibelius- Violin Concerto in D Minor Op.47- II. Adagio di molto.wav" WAVE
TRACK 08 AUDIO
TITLE "Sibelius: Violin Concerto in D Minor Op.47: II. Adagio di molto"
PERFORMER "Ivry Gitlis"
INDEX 01 00:00:00
FILE "09 - Sibelius- Violin Concerto in D Minor Op.47- III. Allegro ma non tanto.wav" WAVE
TRACK 09 AUDIO
TITLE "Sibelius: Violin Concerto in D Minor Op.47: III. Allegro ma non tanto"
PERFORMER "Ivry Gitlis"
INDEX 01 00:00:00

Отчет CUETools

[CUETools log; Date: 16.11.2013 15:21:11; Version: 2.1.4]
Pregap length 00:00:37.
[CTDB TOCID: nsxa89ccf1MI_Ev9UjtmAatlFn4-] found.
Track | CTDB Status
1 | (1/1) Accurately ripped
2 | (1/1) Accurately ripped
3 | (1/1) Accurately ripped
4 | (1/1) Accurately ripped
5 | (1/1) Accurately ripped
6 | (1/1) Accurately ripped
7 | (1/1) Accurately ripped
8 | (1/1) Accurately ripped
9 | (1/1) Accurately ripped
[AccurateRip ID: 001ce907-00cf494c-7f12ae09] found.
Track [ CRC | V2 ] Status
01 [eb6204d7|3a8a1b6b] (4+2/6) Accurately ripped
02 [e1ef2fc3|bfaccd4c] (4+2/6) Accurately ripped
03 [1b937361|86cccde5] (4+2/6) Accurately ripped
04 [e4b43a2b|3a5e6ca6] (4+2/6) Accurately ripped
05 [f7479de1|a13f7396] (4+2/6) Accurately ripped
06 [b48ad5ca|0b3f7ae2] (4+2/6) Accurately ripped
07 [b684e520|1cb95ecb] (4+2/6) Accurately ripped
08 [91984af5|e6c8e974] (4+2/6) Accurately ripped
09 [e154c3f4|c6a52fa9] (4+2/6) Accurately ripped
Track Peak [ CRC32 ] [W/O NULL] [ LOG ]
-- 97,5 [686849BC] [75B13D25]
01 90,9 [EA3F6463] [8032854E] CRC32
02 51,7 [B109C11F] [48347B10] CRC32
03 76,7 [AD8B6165] [F8E1CBD5] CRC32
04 87,3 [D4CE2678] [B90E7998] CRC32
05 79,2 [09120A73] [CF4CD4DC] CRC32
06 79,8 [9D2FA08C] [DAD5C5BD] CRC32
07 97,5 [8AFCB519] [47D05BFD] CRC32
08 79,9 [9588B2C6] [D6E8FA66] CRC32
09 83,7 [A08CF59E] [5A6613D0] CRC32

CD2 {79:26}

Mendelssohn: Violin Concerto in E Minor, Op.64
01. I. Allegro molto appassionato (11:02)
02. II. Andante (7:30)
03. III. Allegretto non troppo (5:36)
Bartok: Violin Concerto No.2 (1938)
04. I. Allegro non troppo (14:47)
05. II. Andante tranquillo (9:05)
06. III. Allegro molto (10:59)
07. Bartok: Sonate for Solo Violin (1944) (20:27)

Лог создания рипа

Exact Audio Copy V1.0 beta 3 from 29. August 2011
EAC extraction logfile from 13. March 2013, 15:18
Ivry Gitlis, Vienna Symphony Orchestra, Jascha Horenstein / The Art of Ivry Gitlis (Cd2)
Used drive : TSSTcorpCDDVDW SH-222BB Adapter: 2 ID: 0
Read mode : Secure
Utilize accurate stream : Yes
Defeat audio cache : Yes
Make use of C2 pointers : No
Read offset correction : 6
Overread into Lead-In and Lead-Out : No
Fill up missing offset samples with silence : Yes
Delete leading and trailing silent blocks : No
Null samples used in CRC calculations : Yes
Used interface : Native Win32 interface for Win NT & 2000
Gap handling : Appended to previous track
Used output format : User Defined Encoder
Selected bitrate : 192 kBit/s
Quality : High
Add ID3 tag : No
Command line compressor : C:\Program Files (x86)\FLAC\flac.exe
Additional command line options : -T "artist=%artist%" -T "title=%title%" -T "album=%albumtitle%" -T "date=%year%" -T "tracknumber=%tracknr%" -T "genre=%genre%" -T "comment=%comment%" -T "composer=%composer%" -8 %source%
TOC of the extracted CD
Track | Start | Length | Start sector | End sector
---------------------------------------------------------
1 | 0:00.45 | 11:02.25 | 45 | 49719
2 | 11:02.70 | 7:30.12 | 49720 | 83481
3 | 18:33.07 | 5:36.15 | 83482 | 108696
4 | 24:09.22 | 14:47.05 | 108697 | 175226
5 | 38:56.27 | 9:04.63 | 175227 | 216089
6 | 48:01.15 | 10:59.00 | 216090 | 265514
7 | 59:00.15 | 20:27.37 | 265515 | 357576
Track 1
Filename H:\EAC NEW Rips\01 - Mendelssohn, Violin Concerto in E minor, Op. 64 - I. Allegro molto appassionato.wav
Pre-gap length 0:00:02.60
Peak level 83.4 %
Extraction speed 2.1 X
Track quality 99.9 %
Test CRC AB56C186
Copy CRC AB56C186
Accurately ripped (confidence 3) [069E90C9] (AR v1)
Copy OK
Track 2
Filename H:\EAC NEW Rips\02 - Mendelssohn, Violin Concerto in E minor, Op. 64 - II. Andante.wav
Peak level 72.3 %
Extraction speed 2.0 X
Track quality 99.9 %
Test CRC D445ACAB
Copy CRC D445ACAB
Accurately ripped (confidence 3) [8D7AA01C] (AR v1)
Copy OK
Track 3
Filename H:\EAC NEW Rips\03 - Mendelssohn, Violin Concerto in E minor, Op. 64 - III. Allegretto non troppo.wav
Peak level 91.1 %
Extraction speed 2.1 X
Track quality 100.0 %
Test CRC 647D3944
Copy CRC 647D3944
Accurately ripped (confidence 3) [301E1F46] (AR v1)
Copy OK
Track 4
Filename H:\EAC NEW Rips\04 - Bartok, Violin Concerto Nr. 2 Sz 112 (1938) - I. Allegro non troppo.wav
Pre-gap length 0:00:07.40
Peak level 81.9 %
Extraction speed 2.2 X
Track quality 99.9 %
Test CRC 11DFA625
Copy CRC 11DFA625
Accurately ripped (confidence 3) [1239AE1A] (AR v1)
Copy OK
Track 5
Filename H:\EAC NEW Rips\05 - Bartok, Violin Concerto Nr. 2 Sz 112 (1938) - II. Andante tranquillo.wav
Peak level 59.8 %
Extraction speed 2.1 X
Track quality 99.9 %
Test CRC E855B3EC
Copy CRC E855B3EC
Accurately ripped (confidence 3) [7C3F5359] (AR v1)
Copy OK
Track 6
Filename H:\EAC NEW Rips\06 - Bartok, Violin Concerto Nr. 2 Sz 112 (1938) - III. Allegro molto.wav
Peak level 75.7 %
Extraction speed 2.1 X
Track quality 99.9 %
Test CRC 8B23A0F8
Copy CRC 8B23A0F8
Accurately ripped (confidence 3) [B2378E06] (AR v1)
Copy OK
Track 7
Filename H:\EAC NEW Rips\07 - Bartok, Sonate for Solo Violin Sz 117 (1944).wav
Pre-gap length 0:00:06.57
Peak level 45.8 %
Extraction speed 2.3 X
Track quality 100.0 %
Test CRC 8C61C777
Copy CRC 8C61C777
Accurately ripped (confidence 3) [35834D4C] (AR v1)
Copy OK
All tracks accurately ripped
No errors occurred
End of status report
==== Log checksum 039081D7E6F45BDC9A20334E3136CD422CE3379223F804EF093A6CF7B7F78A98 ====

Содержание индексной карты (.CUE)

REM GENRE Classical
REM DATE 1992
REM DISCID 58129F07
REM COMMENT "ExactAudioCopy v1.0b3"
PERFORMER "Ivry Gitlis"
TITLE "The Art of Ivry Gitlis CD2"
FILE "01 - Mendelssohn- Violin Concerto in E Minor, Op.64- I. Allegro molto appassionato.wav" WAVE
TRACK 01 AUDIO
TITLE "Mendelssohn: Violin Concerto in E Minor, Op.64: I. Allegro molto appassionato"
PERFORMER "Ivry Gitlis"
PREGAP 00:00:45
INDEX 01 00:00:00
FILE "02 - Mendelssohn- Violin Concerto in E Minor, Op.64- II. Andante.wav" WAVE
TRACK 02 AUDIO
TITLE "Mendelssohn: Violin Concerto in E Minor, Op.64: II. Andante"
PERFORMER "Ivry Gitlis"
INDEX 01 00:00:00
FILE "03 - Mendelssohn- Violin Concerto in E Minor, Op.64- III. Allegretto non troppo.wav" WAVE
TRACK 03 AUDIO
TITLE "Mendelssohn: Violin Concerto in E Minor, Op.64: III. Allegretto non troppo"
PERFORMER "Ivry Gitlis"
INDEX 01 00:00:00
TRACK 04 AUDIO
TITLE "Bartok: Violin Concerto No.2 (1938): I. Allegro non troppo"
PERFORMER "Ivry Gitlis"
INDEX 00 05:28:60
FILE "04 - Bartok- Violin Concerto No.2 (1938)- I. Allegro non troppo.wav" WAVE
INDEX 01 00:00:00
FILE "05 - Bartok- Violin Concerto No.2 (1938)- II. Andante tranquillo.wav" WAVE
TRACK 05 AUDIO
TITLE "Bartok: Violin Concerto No.2 (1938): II. Andante tranquillo"
PERFORMER "Ivry Gitlis"
INDEX 01 00:00:00
FILE "06 - Bartok- Violin Concerto No.2 (1938)- III. Allegro molto.wav" WAVE
TRACK 06 AUDIO
TITLE "Bartok: Violin Concerto No.2 (1938): III. Allegro molto"
PERFORMER "Ivry Gitlis"
INDEX 01 00:00:00
TRACK 07 AUDIO
TITLE "Bartok: Sonate for Solo Violin (1944)"
PERFORMER "Ivry Gitlis"
INDEX 00 10:52:32
FILE "07 - Bartok- Sonate for Solo Violin (1944).wav" WAVE
INDEX 01 00:00:00

Отчет CUETools

[CUETools log; Date: 16.11.2013 15:21:32; Version: 2.1.4]
Pregap length 00:00:45.
[CTDB TOCID: EwGICWSfiFh4tY0BNc6g34AlB0Q-] found.
Track | CTDB Status
1 | (1/1) Accurately ripped
2 | (1/1) Accurately ripped
3 | (1/1) Accurately ripped
4 | (1/1) Accurately ripped
5 | (1/1) Accurately ripped
6 | (1/1) Accurately ripped
7 | (1/1) Accurately ripped
[AccurateRip ID: 00132ba1-007522c7-58129f07] found.
Track [ CRC | V2 ] Status
01 [069e90c9|1eaec82d] (04+02/13) Accurately ripped
02 [8d7aa01c|b748587a] (04+02/13) Accurately ripped
03 [301e1f46|7dabb40e] (04+02/13) Accurately ripped
04 [1239ae1a|710ab82a] (04+02/13) Accurately ripped
05 [7c3f5359|455216e2] (04+02/13) Accurately ripped
06 [b2378e06|dd307b5e] (04+02/13) Accurately ripped
07 [35834d4c|9c15650c] (04+02/13) Accurately ripped
Offsetted by -905:
01 [78a53c92] (02/13) Accurately ripped
02 [728af185] (02/13) Accurately ripped
03 [a8d04c87] (02/13) Accurately ripped
04 [2f0617e1] (02/13) Accurately ripped
05 [151c0990] (02/13) Accurately ripped
06 [b6a5c647] (02/13) Accurately ripped
07 [60fd7763] (02/13) Accurately ripped
Offsetted by -1575:
01 [6e3d9e0b] (00/13) No match (V2 was not tested)
02 [12f60338] (00/13) No match (V2 was not tested)
03 [68f0eccb] (00/13) No match (V2 was not tested)
04 [9076fdc2] (00/13) No match (V2 was not tested)
05 [dd4388a1] (00/13) No match (V2 was not tested)
06 [22a23ef9] (00/13) No match (V2 was not tested)
07 [fe9aef31] (00/13) No match (V2 was not tested)
Track Peak [ CRC32 ] [W/O NULL] [ LOG ]
-- 91,1 [37589C41] [F8BB573F]
01 83,4 [AB56C186] [F8FFDF26] CRC32
02 72,3 [D445ACAB] [443777A0] CRC32
03 91,1 [647D3944] [2461179C] CRC32
04 81,9 [11DFA625] [D6790F61] CRC32
05 59,8 [E855B3EC] [F5387002] CRC32
06 75,7 [8B23A0F8] [8A147ABD] CRC32
07 45,8 [8C61C777] [89D7824A] CRC32
Исполнители:
Ivry Gitlis - violin
Vienna Symphony Orchestra (CD1, CD2#1-6)
Heinrich Hollreiser (CD1#1-3), Jascha Horenstein (CD1#4-9, CD2#4-6), Hans Swarowsky (CD2#1-3) - conductor
[teatrix.ru].t17850.torrent 
Торрент: Зарегистрирован [ 2016-03-17 00:48 ] · C335CC46ED65BBAC2C64FB6265D97472EFF61BC1

Скачать .torrent

Скачать

13 KB

Статус: проверено
Скачан: 0 раз
Размер: 530 MB
terms.php



Быстрый ответ

Имя:

      
Для отправки сообщений необходимо включить JavaScript
Показать сообщения:    

Текущее время: 03-Дек 14:35

Часовой пояс: UTC + 3


Вы можете начинать темы
Вы можете отвечать на сообщения
Вы не можете редактировать свои сообщения
Вы не можете удалять свои сообщения
Вы не можете голосовать в опросах
Вы не можете прикреплять файлы к сообщениям
Вы можете скачивать файлы