(Classical/Baroque/Sacred) J.S.Bach - Matthaus-Passion BWV 244 (Gura, Weisser, Sunhae Im, Roterberg, Fink, Chappuis, Lehtipuu, Trumpy, Wolff, Kataja, RIAS Kammerchor, Akademie fur Alte Musik Berlin, Rene Jacobs) - 2013, FLAC (image+.cue) lossless


Статистика раздачи [Обновить пиров]
Размер:  951 MB   |    Зарегистрирован:  8 месяцев 25 дней   |    Скачан:  0 раз

Полного источника не было: Никогда

 
   
 
 
 

[Цитировать]

Johann Sebastian Bach
(1685-1750)
Matthäus-Passion
Passion Selon Saint Matthieu / St Matthew Passion
« Passio D.N.J.C. Secundum Matthaeum » BWV 244
Poesia Dominum Henrici alias Picander dictus
Жанр: Classical/Baroque/Sacred
Страна-производитель диска: Италия
Год издания диска: 2013
Издатель (лейбл): Harmonia Mundi
Номер по каталогу: HMC 802156.58
Дата записи: 2012
Аудиокодек: FLAC
Тип рипа: image+.cue
Битрейт аудио: lossless
Продолжительность: 2h 39'05''
Источник: собственный рип
Наличие сканов в содержимом раздачи: да
ТреклистCD1Erster Teil / Première partie / First part
  • 01. 1. Chorus I & II "Kommt, ihr Töchter, helft mir klagen" [0:08:31.24]
  • 02. 2. "Da Jesus diese Rede vollendet hatte" (Evangelista, Jesus) [0:00:39.03]
  • 03. 3. Choral "Herzliebster Jesu, was hast du verbrochen" [0:00:50.11]
  • 04. 4a. "Da versammleten sich die Hohenpriester" (Evangelista) [0:02:57.38]
    4b. Chorus I & II "Ja nicht auf das Fest"
    4c. "Da nun Jesus war zu Bethanien" (Evangelista)
    4d. Chorus I "Wozu dienet dieser Unrat"
    4e. "Da das Jesus merkete" (Evangelista, Jesus)
  • 05. 5. Recitativo (Alt) "Du lieber Heiland du" [0:00:45.56]
  • 06. 6. Aria (Alt) "Buß und Reu" [0:04:03.11]
  • 07. 7. "Da ging hin der Zwölfen einer" (Evangelista, Judas) [0:00:33.63]
  • 08. 8. Aria (Sopran) "Blute nur, du liebes Herz" [0:03:53.42]
  • 09. 9a. "Aber am ersten Tage der süßen Brot" (Evangelista) [0:01:48.13]
    9b. Chorus I "Wo willst du, daß wir dir bereiten"
    9c. "Er sprach: Gehet ihn in die Stadt" (Evangelista, Jesus)
    9d. "Und sie wurden sehr betrübt" (Evangelista)
    9e. Chorus I "Herr, bin ich's"
  • 10. 10. Choral "Ich bin's, ich sollte büßen" [0:00:55.73]
  • 11. 11. "Er antwortete und sprach" (Evangelista, Jesus, Judas) [0:02:45.14]
  • 12. 12. Recitativo (Sopran) "Wiewohl mein Herz in Tränen schwimmt" [0:01:22.09]
  • 13. 13. Aria (Sopran) "Ich will dir mein Herze schenken" [0:03:17.62]
  • 14. 14. "Und da sie den Lobgesang gesprochen hatten" (Evangelista, Jesus) [0:00:58.71]
  • 15. 15. Choral "Erkenne mich, mein Hüter" [0:01:09.45]
  • 16. 16. "Petrus aber antwortete" (Evangelista, Petrus, Jesus) [0:00:52.73]
  • 17. 17. Choral "Ich will hier bei dir stehen" [0:01:11.23]
  • 18. 18. "Da kam Jesus mit ihnen zu einem Hofe" (Evangelista, Jesus) [0:01:28.34]
  • 19. 19. Recitativo a doi Cori (Tenor) "O Schmerz! hier zittert das gequälte Herz" [0:01:48.17]
  • 20. 20. Aria a doi Cori (Tenor) "Ich will bei meinem Jesu wachen" [0:04:21.24]
  • 21. 21. "Und ging hin ein wenig" (Evangelista, Jesus) [0:00:40.06]
  • 22. 22. Recitativo (Baß) "Der Heiland fällt vor seinem Vater nieder" [0:00:52.25]
  • 23. 23. Aria (Baß) "Gerne will ich mich bequemen" [0:03:56.46]
  • 24. 24. "Und er kam zu seinen Jüngern" (Evangelista, Jesus) [0:01:11.16]
  • 25. 25. Choral "Was mein Gott will, das g'scheh' allzeit" [0:01:08.33]
  • 26. 26. "Und er kam und fand sie aber schlafend" (Evangelista, Jesus, Judas) [0:02:13.43]
  • 27. 27a. Aria a doi Cori (Sopran, Alt) "So ist mein Jesus nun gefangen" [0:04:03.47]
    27b. Chorus I & II "Sind Blitze, sind Donner in Wolken verschwunden"
  • 28. 28. "Und siehe, einer aus denen" (Evangelista, Jesus) [0:02:05.72]
  • 29. 29. Choral "O Mensch, bewein' dein Sünde groß" [0:05:24.60]
    Zweiter Teil / Deuxième partie / Second part
  • 30. 30. Aria (Alt, Chorus I & II) "Ach! nun ist mein Jesus hin" [0:03:10.13]
  • 31. 31. "Die aber Jesum gegriffen hatten" (Evangelista) [0:00:51.38]
  • 32. 32. Choral "Mir hat die Welt trüglich gericht't" [0:00:55.24]
  • 33. 33. "Und wiewohl viel falsche Zeugen herzutraten" (Evangelista, Testis I & II, Pontifex) [0:00:56.38]
  • 34. 34. Recitativo (Tenor) "Mein Jesus schweigt zu falschen Lügen stille" [0:01:07.54]
  • 35. 35. Aria (Tenor) "Geduld, Geduld!" [0:03:06.12]
  • 36. 36a. "Und der Hohepriester antwortete" (Evangelista, Pontifex, Jesus) [0:01:54.64]
    36b. Chorus I & II "Er ist des Todes schuldig"
    36c. "Da speieten sie aus in sein Angesicht" (Evangelista)
    36d. Chorus I & II "Weissage uns, Christe"
  • 37. 37. Choral "Wer hat dich so geschlagen" [0:00:58.07]
    CD2Zweiter Teil (Ende) / Deuxième partie (fin) / Second part (End)
  • 01. 38a. "Petrus aber saß draußen im Palast" (Evangelista, Ancilla I & II, Petrus) [0:02:09.55]
    38b. Chorus II "Wahrlich, du bist auch einer von denen" (Evangelista, Petrus)
  • 02. 39. Aria (Alt) "Erbarme dich" [0:05:44.42]
  • 03. 40. Choral "Bin ich gleich von dir gewichen" [0:01:09.11]
  • 04. 41a. "Des Morgens aber hielten alle Hohepriester" (Evangelista, Judas) [0:01:34.44]
    41b. Chorus I & II "Was gehet uns das an"
    41c. "Und er warf die Silberlinge in den Tempel" (Evangelista, Pontifex I & II)
  • 05. 42. Aria (Baß) "Geht mir meinen Jesum wieder" [0:02:51.12]
  • 06. 43. "Sie hielten aber einen Rat" (Evangelista, Pilatus, Jesus) [0:01:53.43]
  • 07. 44. Choral "Befiehl du deine Wege" [0:01:13.07]
  • 08. 45a. "Auf das Fest aber hatte der Landpfleger" (Evangelista, Pilatus, Uxor Pilati, Chorus I & II) [0:02:17.20]
    45b. Chorus I & II "Laß ihn kreuzigen!"
  • 09. 46. Choral "Wie wunderbarlich ist doch diese Strafe" [0:00:54.38]
  • 10. 47. "Der Landpfleger sagte" (Evangelista, Pilatus) [0:00:15.64]
  • 11. 48. Recitativo (Sopran) "Er hat uns allen wohlgetan" [0:00:56.05]
  • 12. 49. Aria (Sopran) "Aus Liebe will mein Heiland sterben" [0:03:41.02]
  • 13. 50a. "Sie schrieen aber noch mehr" (Evangelista) [0:01:52.56]
    50b. Chorus I & II "Laß ihn kreuzigen!"
    50c. "Da aber Pilatus sahe" (Evangelista, Pilatus)
    50d. Chorus I & II "Sein Blut komme über uns"
    50e. "Da gab er ihnen Barrabam los" (Evangelista)
  • 14. 51. Recitativo (Alt) "Erbarm es Gott" [0:00:49.43]
  • 15. 52. Aria (Alt) "Können Tränen meiner Wangen" [0:05:25.16]
  • 16. 53a. "Da nahmen die Kriegsknechte" (Evangelista) [0:00:57.17]
    53b. Chorus I & II "Gegrüßet seist du, Judenkönig"
    53c. "Und speieten ihn an" (Evangelista)
  • 17. 54. Choral "O Haupt voll Blut und Wunden" [0:02:29.70]
  • 18. 55. "Und da sie ihn verspottet hatten" (Evangelista) [0:00:42.62]
  • 19. 56. Recitativo (Baß) "Ja! freilich will in uns das Fleisch und Blut" [0:00:29.18]
  • 20. 57. Aria (Baß) "Komm, süßes Kreuz" [0:05:27.34]
  • 21. 58a. "Und da sie an die Stätte kamen" (Evangelista) [0:03:19.71]
    58b. Chorus I & II "Der du den Tempel Gottes zerbrichst"
    58c. "Desgleichen auch die Hohenpriester" (Evangelista)
    58d. Chorus I & II "Andern hat er geholfen"
    58e. "Desgleichen schmäheten ihn" (Evangelista)
  • 22. 59. Recitativo (Alt) "Ach, Golgatha, unsel'ges Golgatha" [0:01:24.21]
  • 23. 60. Aria (Alt, Chorus II) "Sehet Jesus hat die Hand" [0:03:23.08]
  • 24. 61a. "Und von der sechsten Stunde" (Evangelista, Jesus) [0:02:04.18]
    61b. Chorus I "Der rufet dem Elias"
    61c. "Und bald lief einer unter ihnen" (Evangelista)
    61d. Chorus II "Halt, laß sehen"
    61e. "Aber Jesus schriee abermals laut" (Evangelista)
  • 25. 62. Choral "Wenn ich einmal soll scheiden" [0:01:19.53]
  • 26. 63a. "Und siehe da, der Vorhang im Tempel zerriß" (Evangelista) [0:02:16.63]
    63b. Chorus I & II "Wahrlich, dieser ist Gottes Sohn gewesen"
    63c. "Und es waren viel Weiber da" (Evangelista)
  • 27. 64. Recitativo (Baß) "Am Abend da es kühle war" [0:01:52.16]
  • 28. 65. Aria (Baß) "Mache dich, mein Herze, rein" [0:05:59.40]
  • 29. 66a. "Und Joseph nahm den Lieb" (Evangelista) [0:02:15.47]
    66b. Chorus I & II "Herr, wir haben gedacht"
    66c. "Pilatus sprach zu ihnen" (Evangelista, Pilatus)
  • 30. 67. Recitativo (SATB, Chorus I & II) "Nun ist der Herr zur Ruh gebracht" [0:01:58.33]
  • 31. 68. Chorus I & II "Wir setzen uns mit Tränen nieder" [0:04:56.10]
  • 32. Anhang 56. Recitativo "Ja! freilich will In uns" (Fassung für Gambe) [0:00:32.12]
  • 33. Anhang 57. Aria "Komm, süßes Kreuz" (Fassung für Gambe) [0:05:53.62]
    Исполнители:
    Evangelista Werner Güra, tenor
    Christus Johannes Weisser, bass
    Soprano Sunhae Im (nos.12, 13, 27a, 48, 49)
    Soprano Christina Roterberg (nos.8, 30)
    Alto Bernarda Fink (nos.5, 6, 27a, 38, 39, 59, 60)
    Alto Marie-Claude Chappuis (nos.51, 52)
    Tenor Topi Lehtipuu (nos.19, 20)
    Tenor Fabio Trümpy (nos.34, 35)
    Bass-baritone Konstantin Wolff (nos.56, 57)
    Bass Arttu Kataja (nos.22, 23, 30, 42)
    RIAS Kammerchor
    Staats- und Domchor Berlin
    Direction Kai Uwe Jirka
    Akademie für Alte Musik Berlin
    Direction René Jacobs

    Лог создания рипаCD1

    Exact Audio Copy V1.0 beta 3 from 29. August 2011
    Отчёт EAC об извлечении, выполненном 7. ноября 2013, 23:59
    Akademie fur Alte Musik Berlin, Rene Jacobs / J.S.Bach - Matthaus-Passion CD1
    Дисковод: HL-DT-STDVDRAM GU71N Adapter: 2 ID: 0
    Режим чтения : Достоверность
    Использование точного потока : Да
    Отключение кэша аудио : Да
    Использование указателей C2 : Нет
    Коррекция смещения при чтении : 6
    Способность читать области Lead-in и Lead-out : Нет
    Заполнение пропущенных сэмплов тишиной : Да
    Удаление блоков с тишиной в начале и конце : Нет
    При вычислениях CRC использовались нулевые сэмплы : Да
    Интерфейс : Встроенный Win32-интерфейс для Win NT/2000
    Выходной формат : Пользовательский кодировщик
    Выбранный битрейт : 1024 kBit/s
    Качество : Высокий
    Добавление ID3-тега : Нет
    Утилита сжатия : C:\Program Files (x86)\Exact Audio Copy\Flac\flac.exe
    Дополнительные параметры : -8 -V -T "ALBUMARTIST=%albumartist%" -T "ALBUM=%albumtitle%" -T "DATE=%year%" -T "TRACKTOTAL=%numtracks%" -T "GENRE=%genre%" -T "COMMENT=%comment%" -T "PERFORMER=%albuminterpret%" -T "COMPOSER=%composer%" %source% -o %dest%
    TOC извлечённого CD
    Трек | Старт | Длительность | Начальный сектор | Конечный сектор
    ---------------------------------------------------------------------
    1 | 0:00.00 | 8:31.24 | 0 | 38348
    2 | 8:31.24 | 0:39.03 | 38349 | 41276
    3 | 9:10.27 | 0:50.11 | 41277 | 45037
    4 | 10:00.38 | 2:57.38 | 45038 | 58350
    5 | 12:58.01 | 0:45.56 | 58351 | 61781
    6 | 13:43.57 | 4:03.11 | 61782 | 80017
    7 | 17:46.68 | 0:33.63 | 80018 | 82555
    8 | 18:20.56 | 3:53.42 | 82556 | 100072
    9 | 22:14.23 | 1:48.13 | 100073 | 108185
    10 | 24:02.36 | 0:55.73 | 108186 | 112383
    11 | 24:58.34 | 2:45.14 | 112384 | 124772
    12 | 27:43.48 | 1:22.09 | 124773 | 130931
    13 | 29:05.57 | 3:17.62 | 130932 | 145768
    14 | 32:23.44 | 0:58.71 | 145769 | 150189
    15 | 33:22.40 | 1:09.45 | 150190 | 155409
    16 | 34:32.10 | 0:52.73 | 155410 | 159382
    17 | 35:25.08 | 1:11.23 | 159383 | 164730
    18 | 36:36.31 | 1:28.34 | 164731 | 171364
    19 | 38:04.65 | 1:48.17 | 171365 | 179481
    20 | 39:53.07 | 4:21.24 | 179482 | 199080
    21 | 44:14.31 | 0:40.06 | 199081 | 202086
    22 | 44:54.37 | 0:52.25 | 202087 | 206011
    23 | 45:46.62 | 3:56.46 | 206012 | 223757
    24 | 49:43.33 | 1:11.16 | 223758 | 229098
    25 | 50:54.49 | 1:08.33 | 229099 | 234231
    26 | 52:03.07 | 2:13.43 | 234232 | 244249
    27 | 54:16.50 | 4:03.47 | 244250 | 262521
    28 | 58:20.22 | 2:05.72 | 262522 | 271968
    29 | 60:26.19 | 5:24.60 | 271969 | 296328
    30 | 65:51.04 | 3:10.13 | 296329 | 310591
    31 | 69:01.17 | 0:51.38 | 310592 | 314454
    32 | 69:52.55 | 0:55.24 | 314455 | 318603
    33 | 70:48.04 | 0:56.38 | 318604 | 322841
    34 | 71:44.42 | 1:07.54 | 322842 | 327920
    35 | 72:52.21 | 3:06.12 | 327921 | 341882
    36 | 75:58.33 | 1:54.64 | 341883 | 350496
    37 | 77:53.22 | 0:58.07 | 350497 | 354853
    Характеристики диапазона извлечения и сообщения об ошибках
    Выбранный диапазон
    Имя файла H:\Rips\J.S.Bach - Matthaus-Passion BWV 244 - Akademie fur Alte Musik Berlin, Rene Jacobs (HM, 2013)\J.S.Bach - Matthaus-Passion CD1.wav
    Пиковый уровень 98.6 %
    Скорость извлечения 2.3 X
    Качество диапазона 100.0 %
    CRC теста D60D4018
    CRC копии D60D4018
    Копирование... OK
    Ошибок не произошло
    AccurateRip: сводка
    Трек 1 : извлечено точно (доверие 1) [FC4FB0AC] (AR v2)
    Трек 2 : извлечено точно (доверие 1) [FA3ADEC6] (AR v2)
    Трек 3 : извлечено точно (доверие 1) [2E46F9A3] (AR v2)
    Трек 4 : извлечено точно (доверие 1) [BD64077C] (AR v2)
    Трек 5 : извлечено точно (доверие 1) [EC0A939A] (AR v2)
    Трек 6 : извлечено точно (доверие 1) [765D1999] (AR v2)
    Трек 7 : извлечено точно (доверие 1) [0FE2A086] (AR v2)
    Трек 8 : извлечено точно (доверие 1) [73EED641] (AR v2)
    Трек 9 : извлечено точно (доверие 1) [2AC2F954] (AR v2)
    Трек 10 : извлечено точно (доверие 1) [7CB4AFD1] (AR v2)
    Трек 11 : извлечено точно (доверие 1) [88745C86] (AR v2)
    Трек 12 : извлечено точно (доверие 1) [A3F53DDE] (AR v2)
    Трек 13 : извлечено точно (доверие 1) [F5B011CB] (AR v2)
    Трек 14 : извлечено точно (доверие 1) [17C44691] (AR v2)
    Трек 15 : извлечено точно (доверие 1) [B388986E] (AR v2)
    Трек 16 : извлечено точно (доверие 1) [F54DE765] (AR v2)
    Трек 17 : извлечено точно (доверие 1) [B1D21B74] (AR v2)
    Трек 18 : извлечено точно (доверие 1) [D7F6BA83] (AR v2)
    Трек 19 : извлечено точно (доверие 1) [3FB5B36D] (AR v2)
    Трек 20 : извлечено точно (доверие 1) [11BC88E1] (AR v2)
    Трек 21 : извлечено точно (доверие 1) [9F9CEEBB] (AR v2)
    Трек 22 : извлечено точно (доверие 1) [9FD9E9F3] (AR v2)
    Трек 23 : извлечено точно (доверие 1) [069DEE6B] (AR v2)
    Трек 24 : извлечено точно (доверие 1) [771D55B8] (AR v2)
    Трек 25 : извлечено точно (доверие 1) [6CB79887] (AR v2)
    Трек 26 : извлечено точно (доверие 1) [1B3B1DFE] (AR v2)
    Трек 27 : извлечено точно (доверие 1) [C1534999] (AR v2)
    Трек 28 : извлечено точно (доверие 1) [87A849CE] (AR v2)
    Трек 29 : извлечено точно (доверие 1) [21AAE2EC] (AR v2)
    Трек 30 : извлечено точно (доверие 1) [7CDF21BA] (AR v2)
    Трек 31 : извлечено точно (доверие 1) [E5A5AAD4] (AR v2)
    Трек 32 : извлечено точно (доверие 1) [B392AD09] (AR v2)
    Трек 33 : извлечено точно (доверие 1) [9C4E6DAB] (AR v2)
    Трек 34 : извлечено точно (доверие 1) [5CABEC48] (AR v2)
    Трек 35 : извлечено точно (доверие 1) [C7A22B74] (AR v2)
    Трек 36 : извлечено точно (доверие 1) [69FAD76D] (AR v2)
    Трек 37 : извлечено точно (доверие 1) [CB9878B8] (AR v2)
    Все треки извлечены точно
    Конец отчёта
    ==== Контрольная сумма отчёта 8C883666EFE003910A4A12D0DE2979104D86E3B1448CC5A33AA5DE2396D238AA ====

    CD2

    Exact Audio Copy V1.0 beta 3 from 29. August 2011
    Отчёт EAC об извлечении, выполненном 8. ноября 2013, 1:24
    Akademie fur Alte Musik Berlin, Rene Jacobs / J.S.Bach - Matthaus-Passion CD2
    Дисковод: HL-DT-STDVDRAM GU71N Adapter: 2 ID: 0
    Режим чтения : Достоверность
    Использование точного потока : Да
    Отключение кэша аудио : Да
    Использование указателей C2 : Нет
    Коррекция смещения при чтении : 6
    Способность читать области Lead-in и Lead-out : Нет
    Заполнение пропущенных сэмплов тишиной : Да
    Удаление блоков с тишиной в начале и конце : Нет
    При вычислениях CRC использовались нулевые сэмплы : Да
    Интерфейс : Встроенный Win32-интерфейс для Win NT/2000
    Выходной формат : Пользовательский кодировщик
    Выбранный битрейт : 1024 kBit/s
    Качество : Высокий
    Добавление ID3-тега : Нет
    Утилита сжатия : C:\Program Files (x86)\Exact Audio Copy\Flac\flac.exe
    Дополнительные параметры : -8 -V -T "ALBUMARTIST=%albumartist%" -T "ALBUM=%albumtitle%" -T "DATE=%year%" -T "TRACKTOTAL=%numtracks%" -T "GENRE=%genre%" -T "COMMENT=%comment%" -T "PERFORMER=%albuminterpret%" -T "COMPOSER=%composer%" %source% -o %dest%
    TOC извлечённого CD
    Трек | Старт | Длительность | Начальный сектор | Конечный сектор
    ---------------------------------------------------------------------
    1 | 0:00.00 | 2:09.55 | 0 | 9729
    2 | 2:09.55 | 5:44.42 | 9730 | 35571
    3 | 7:54.22 | 1:09.11 | 35572 | 40757
    4 | 9:03.33 | 1:34.44 | 40758 | 47851
    5 | 10:38.02 | 2:51.12 | 47852 | 60688
    6 | 13:29.14 | 1:53.43 | 60689 | 69206
    7 | 15:22.57 | 1:13.07 | 69207 | 74688
    8 | 16:35.64 | 2:17.20 | 74689 | 84983
    9 | 18:53.09 | 0:54.38 | 84984 | 89071
    10 | 19:47.47 | 0:15.64 | 89072 | 90260
    11 | 20:03.36 | 0:56.05 | 90261 | 94465
    12 | 20:59.41 | 3:41.02 | 94466 | 111042
    13 | 24:40.43 | 1:52.56 | 111043 | 119498
    14 | 26:33.24 | 0:49.43 | 119499 | 123216
    15 | 27:22.67 | 5:25.16 | 123217 | 147607
    16 | 32:48.08 | 0:57.17 | 147608 | 151899
    17 | 33:45.25 | 2:29.70 | 151900 | 163144
    18 | 36:15.20 | 0:42.62 | 163145 | 166356
    19 | 36:58.07 | 0:29.18 | 166357 | 168549
    20 | 37:27.25 | 5:27.34 | 168550 | 193108
    21 | 42:54.59 | 3:19.71 | 193109 | 208104
    22 | 46:14.55 | 1:24.21 | 208105 | 214425
    23 | 47:39.01 | 3:23.08 | 214426 | 229658
    24 | 51:02.09 | 2:04.18 | 229659 | 238976
    25 | 53:06.27 | 1:19.53 | 238977 | 244954
    26 | 54:26.05 | 2:16.63 | 244955 | 255217
    27 | 56:42.68 | 1:52.16 | 255218 | 263633
    28 | 58:35.09 | 5:59.40 | 263634 | 290598
    29 | 64:34.49 | 2:15.47 | 290599 | 300770
    30 | 66:50.21 | 1:58.33 | 300771 | 309653
    31 | 68:48.54 | 4:56.10 | 309654 | 331863
    32 | 73:44.64 | 0:32.12 | 331864 | 334275
    33 | 74:17.01 | 5:53.62 | 334276 | 360812
    Характеристики диапазона извлечения и сообщения об ошибках
    Выбранный диапазон
    Имя файла H:\Rips\J.S.Bach - Matthaus-Passion BWV 244 - Akademie fur Alte Musik Berlin, Rene Jacobs (HM, 2013)\J.S.Bach - Matthaus-Passion CD2.wav
    Пиковый уровень 98.5 %
    Скорость извлечения 2.3 X
    Качество диапазона 100.0 %
    CRC теста 47C660C0
    CRC копии 47C660C0
    Копирование... OK
    Ошибок не произошло
    AccurateRip: сводка
    Трек 1 отсутствует в базе данных
    Трек 2 отсутствует в базе данных
    Трек 3 отсутствует в базе данных
    Трек 4 отсутствует в базе данных
    Трек 5 отсутствует в базе данных
    Трек 6 отсутствует в базе данных
    Трек 7 отсутствует в базе данных
    Трек 8 отсутствует в базе данных
    Трек 9 отсутствует в базе данных
    Трек 10 отсутствует в базе данных
    Трек 11 отсутствует в базе данных
    Трек 12 отсутствует в базе данных
    Трек 13 отсутствует в базе данных
    Трек 14 отсутствует в базе данных
    Трек 15 отсутствует в базе данных
    Трек 16 отсутствует в базе данных
    Трек 17 отсутствует в базе данных
    Трек 18 отсутствует в базе данных
    Трек 19 отсутствует в базе данных
    Трек 20 отсутствует в базе данных
    Трек 21 отсутствует в базе данных
    Трек 22 отсутствует в базе данных
    Трек 23 отсутствует в базе данных
    Трек 24 отсутствует в базе данных
    Трек 25 отсутствует в базе данных
    Трек 26 отсутствует в базе данных
    Трек 27 отсутствует в базе данных
    Трек 28 отсутствует в базе данных
    Трек 29 отсутствует в базе данных
    Трек 30 отсутствует в базе данных
    Трек 31 отсутствует в базе данных
    Трек 32 отсутствует в базе данных
    Трек 33 отсутствует в базе данных
    Ни одного трека нет в базе AccurateRip
    Конец отчёта
    ==== Контрольная сумма отчёта F70AB96E336C1AD637BE1D14DA50A608A241B1BA90C35527F327DF5E10B24467 ====

    Содержание индексной карты (.CUE)CD1

    REM GENRE Sacred
    REM DATE 2013
    REM DISCID 22127B25
    REM COMMENT "ExactAudioCopy v1.0b3"
    PERFORMER "Akademie fur Alte Musik Berlin, Rene Jacobs"
    TITLE "J.S.Bach - Matthaus-Passion CD1"
    FILE "J.S.Bach - Matthaus-Passion CD1.flac" WAVE
    TRACK 01 AUDIO
    TITLE "Teil I: 1. Chorus I & II 'Kommt, ihr Tochter, helft mir klagen'"
    PERFORMER "Akademie fur Alte Musik Berlin, Rene Jacobs"
    INDEX 01 00:00:00
    TRACK 02 AUDIO
    TITLE "2. 'Da Jesus diese Rede vollendet hatte' (Evangelista, Jesus)"
    PERFORMER "Akademie fur Alte Musik Berlin, Rene Jacobs"
    INDEX 01 08:31:24
    TRACK 03 AUDIO
    TITLE "3. Choral 'Herzliebster Jesu, was hast du verbrochen'"
    PERFORMER "Akademie fur Alte Musik Berlin, Rene Jacobs"
    INDEX 01 09:10:27
    TRACK 04 AUDIO
    TITLE "4a. 'Da versammleten sich die Hohenpriester' (Evangelista) / 4b. Chorus I & II 'Ja nicht auf das Fest' / 4c / 4d / 4e"
    PERFORMER "Akademie fur Alte Musik Berlin, Rene Jacobs"
    INDEX 01 10:00:38
    TRACK 05 AUDIO
    TITLE "5. Recitativo (Alt) 'Du lieber Heiland du'"
    PERFORMER "Akademie fur Alte Musik Berlin, Rene Jacobs"
    INDEX 01 12:58:01
    TRACK 06 AUDIO
    TITLE "6. Aria (Alt) 'Buss und Reu'"
    PERFORMER "Akademie fur Alte Musik Berlin, Rene Jacobs"
    INDEX 01 13:43:57
    TRACK 07 AUDIO
    TITLE "7. 'Da ging hin der Zwolfen einer' (Evangelista, Judas)"
    PERFORMER "Akademie fur Alte Musik Berlin, Rene Jacobs"
    INDEX 01 17:46:68
    TRACK 08 AUDIO
    TITLE "8. Aria (Sopran) 'Blute nur, du liebes Herz'"
    PERFORMER "Akademie fur Alte Musik Berlin, Rene Jacobs"
    INDEX 01 18:20:56
    TRACK 09 AUDIO
    TITLE "9a. 'Aber am ersten Tage der sussen Brot' (Evangelista) / 9b. Chorus I 'Wo willst du, dass wir dir bereiten' / 9c / 9d / 9e"
    PERFORMER "Akademie fur Alte Musik Berlin, Rene Jacobs"
    INDEX 01 22:14:23
    TRACK 10 AUDIO
    TITLE "10. Choral 'Ich bin's, ich sollte bussen'"
    PERFORMER "Akademie fur Alte Musik Berlin, Rene Jacobs"
    INDEX 01 24:02:36
    TRACK 11 AUDIO
    TITLE "11. 'Er antwortete und sprach' (Evangelista, Jesus, Judas)"
    PERFORMER "Akademie fur Alte Musik Berlin, Rene Jacobs"
    INDEX 01 24:58:34
    TRACK 12 AUDIO
    TITLE "12. Recitativo (Sopran) 'Wiewohl mein Herz in Tranen schwimmt'"
    PERFORMER "Akademie fur Alte Musik Berlin, Rene Jacobs"
    INDEX 01 27:43:48
    TRACK 13 AUDIO
    TITLE "13. Aria (Sopran) 'Ich will dir mein Herze schenken'"
    PERFORMER "Akademie fur Alte Musik Berlin, Rene Jacobs"
    INDEX 01 29:05:57
    TRACK 14 AUDIO
    TITLE "14. 'Und da sie den Lobgesang gesprochen hatten' (Evangelista, Jesus)"
    PERFORMER "Akademie fur Alte Musik Berlin, Rene Jacobs"
    INDEX 01 32:23:44
    TRACK 15 AUDIO
    TITLE "15. Choral 'Erkenne mich, mein Huter'"
    PERFORMER "Akademie fur Alte Musik Berlin, Rene Jacobs"
    INDEX 01 33:22:40
    TRACK 16 AUDIO
    TITLE "16. 'Petrus aber antwortete' (Evangelista, Petrus, Jesus)"
    PERFORMER "Akademie fur Alte Musik Berlin, Rene Jacobs"
    INDEX 01 34:32:10
    TRACK 17 AUDIO
    TITLE "17. Choral 'Ich will hier bei dir stehen'"
    PERFORMER "Akademie fur Alte Musik Berlin, Rene Jacobs"
    INDEX 01 35:25:08
    TRACK 18 AUDIO
    TITLE "18. 'Da kam Jesus mit ihnen zu einem Hofe' (Evangelista, Jesus)"
    PERFORMER "Akademie fur Alte Musik Berlin, Rene Jacobs"
    INDEX 01 36:36:31
    TRACK 19 AUDIO
    TITLE "19. Recitativo a doi Cori (Tenor) 'O Schmerz! hier zittert das gequalte Herz'"
    PERFORMER "Akademie fur Alte Musik Berlin, Rene Jacobs"
    INDEX 01 38:04:65
    TRACK 20 AUDIO
    TITLE "20. Aria a doi Cori (Tenor) 'Ich will bei meinem Jesu wachen'"
    PERFORMER "Akademie fur Alte Musik Berlin, Rene Jacobs"
    INDEX 01 39:53:07
    TRACK 21 AUDIO
    TITLE "21. 'Und ging hin ein wenig' (Evangelista, Jesus)"
    PERFORMER "Akademie fur Alte Musik Berlin, Rene Jacobs"
    INDEX 01 44:14:31
    TRACK 22 AUDIO
    TITLE "22. Recitativo (Bass) 'Der Heiland fallt vor seinem Vater nieder'"
    PERFORMER "Akademie fur Alte Musik Berlin, Rene Jacobs"
    INDEX 01 44:54:37
    TRACK 23 AUDIO
    TITLE "23. Aria (Bass) 'Gerne will ich mich bequemen'"
    PERFORMER "Akademie fur Alte Musik Berlin, Rene Jacobs"
    INDEX 01 45:46:62
    TRACK 24 AUDIO
    TITLE "24. 'Und er kam zu seinen Jungern' (Evangelista, Jesus)"
    PERFORMER "Akademie fur Alte Musik Berlin, Rene Jacobs"
    INDEX 01 49:43:33
    TRACK 25 AUDIO
    TITLE "25. Choral 'Was mein Gott will, das g'scheh' allzeit'"
    PERFORMER "Akademie fur Alte Musik Berlin, Rene Jacobs"
    INDEX 01 50:54:49
    TRACK 26 AUDIO
    TITLE "26. 'Und er kam und fand sie aber schlafend' (Evangelista, Jesus, Judas)"
    PERFORMER "Akademie fur Alte Musik Berlin, Rene Jacobs"
    INDEX 01 52:03:07
    TRACK 27 AUDIO
    TITLE "27a. Aria a doi Cori (Sopran, Alt) 'So ist mein Jesus nun gefangen' / 27b. Chorus I & II 'Sind Blitze, sind Donner in Wolken verschwunden'"
    PERFORMER "Akademie fur Alte Musik Berlin, Rene Jacobs"
    INDEX 01 54:16:50
    TRACK 28 AUDIO
    TITLE "28. 'Und siehe, einer aus denen' (Evangelista, Jesus)"
    PERFORMER "Akademie fur Alte Musik Berlin, Rene Jacobs"
    INDEX 01 58:20:22
    TRACK 29 AUDIO
    TITLE "29. Choral 'O Mensch, bewein' dein Sunde gross'"
    PERFORMER "Akademie fur Alte Musik Berlin, Rene Jacobs"
    INDEX 01 60:26:19
    TRACK 30 AUDIO
    TITLE "Teil II: 30. Aria (Alt, Chorus I & II) 'Ach! nun ist mein Jesus hin'"
    PERFORMER "Akademie fur Alte Musik Berlin, Rene Jacobs"
    INDEX 00 65:45:07
    INDEX 01 65:51:04
    TRACK 31 AUDIO
    TITLE "31. 'Die aber Jesum gegriffen hatten' (Evangelista)"
    PERFORMER "Akademie fur Alte Musik Berlin, Rene Jacobs"
    INDEX 01 69:01:17
    TRACK 32 AUDIO
    TITLE "32. Choral 'Mir hat die Welt truglich gericht't'"
    PERFORMER "Akademie fur Alte Musik Berlin, Rene Jacobs"
    INDEX 01 69:52:55
    TRACK 33 AUDIO
    TITLE "33. 'Und wiewohl viel falsche Zeugen herzutraten' (Evangelista, Testis I & II, Pontifex)"
    PERFORMER "Akademie fur Alte Musik Berlin, Rene Jacobs"
    INDEX 01 70:48:04
    TRACK 34 AUDIO
    TITLE "34. Recitativo (Tenor) 'Mein Jesus schweigt zu falschen Lugen stille'"
    PERFORMER "Akademie fur Alte Musik Berlin, Rene Jacobs"
    INDEX 01 71:44:42
    TRACK 35 AUDIO
    TITLE "35. Aria (Tenor) 'Geduld, Geduld!'"
    PERFORMER "Akademie fur Alte Musik Berlin, Rene Jacobs"
    INDEX 01 72:52:21
    TRACK 36 AUDIO
    TITLE "36a. 'Und der Hohepriester antwortete' (Evangelista, Pontifex, Jesus) / 36b. Chorus I & II 'Er ist des Todes schuldig' / 36c / 36d"
    PERFORMER "Akademie fur Alte Musik Berlin, Rene Jacobs"
    INDEX 01 75:58:33
    TRACK 37 AUDIO
    TITLE "37. Choral 'Wer hat dich so geschlagen'"
    PERFORMER "Akademie fur Alte Musik Berlin, Rene Jacobs"
    INDEX 01 77:53:22

    CD2

    REM GENRE Sacred
    REM DATE 2013
    REM DISCID DF12CA21
    REM COMMENT "ExactAudioCopy v1.0b3"
    PERFORMER "Akademie fur Alte Musik Berlin, Rene Jacobs"
    TITLE "J.S.Bach - Matthaus-Passion CD2"
    FILE "J.S.Bach - Matthaus-Passion CD2.flac" WAVE
    TRACK 01 AUDIO
    TITLE "38a. 'Petrus aber sass draussen im Palast' (Evangelista, Ancilla I & II, Petrus) / 38b. Chorus II 'Wahrlich, du bist auch einer von denen' (Evangelista, Petrus)"
    PERFORMER "Akademie fur Alte Musik Berlin, Rene Jacobs"
    INDEX 01 00:00:00
    TRACK 02 AUDIO
    TITLE "39. Aria (Alt) 'Erbarme dich'"
    PERFORMER "Akademie fur Alte Musik Berlin, Rene Jacobs"
    INDEX 01 02:09:55
    TRACK 03 AUDIO
    TITLE "40. Choral 'Bin ich gleich von dir gewichen'"
    PERFORMER "Akademie fur Alte Musik Berlin, Rene Jacobs"
    INDEX 01 07:54:22
    TRACK 04 AUDIO
    TITLE "41a. 'Des Morgens aber hielten alle Hohepriester' (Evangelista, Judas) / 41b. Chorus I & II 'Was gehet uns das an' / 41c"
    PERFORMER "Akademie fur Alte Musik Berlin, Rene Jacobs"
    INDEX 01 09:03:33
    TRACK 05 AUDIO
    TITLE "42. Aria (Bass) 'Geht mir meinen Jesum wieder'"
    PERFORMER "Akademie fur Alte Musik Berlin, Rene Jacobs"
    INDEX 01 10:38:02
    TRACK 06 AUDIO
    TITLE "43. 'Sie hielten aber einen Rat' (Evangelista, Pilatus, Jesus)"
    PERFORMER "Akademie fur Alte Musik Berlin, Rene Jacobs"
    INDEX 01 13:29:14
    TRACK 07 AUDIO
    TITLE "44. Choral 'Befiehl du deine Wege'"
    PERFORMER "Akademie fur Alte Musik Berlin, Rene Jacobs"
    INDEX 01 15:22:57
    TRACK 08 AUDIO
    TITLE "45a. 'Auf das Fest aber hatte der Landpfleger' (Evangelista, Pilatus, Uxor Pilati, Chorus I & II) / 45b. Chorus I & II 'Lass ihn kreuzigen!'"
    PERFORMER "Akademie fur Alte Musik Berlin, Rene Jacobs"
    INDEX 01 16:35:64
    TRACK 09 AUDIO
    TITLE "46. Choral 'Wie wunderbarlich ist doch diese Strafe'"
    PERFORMER "Akademie fur Alte Musik Berlin, Rene Jacobs"
    INDEX 01 18:53:09
    TRACK 10 AUDIO
    TITLE "47. 'Der Landpfleger sagte' (Evangelista, Pilatus)"
    PERFORMER "Akademie fur Alte Musik Berlin, Rene Jacobs"
    INDEX 01 19:47:47
    TRACK 11 AUDIO
    TITLE "48. Recitativo (Sopran) 'Er hat uns allen wohlgetan'"
    PERFORMER "Akademie fur Alte Musik Berlin, Rene Jacobs"
    INDEX 01 20:03:36
    TRACK 12 AUDIO
    TITLE "49. Aria (Sopran) 'Aus Liebe will mein Heiland sterben'"
    PERFORMER "Akademie fur Alte Musik Berlin, Rene Jacobs"
    INDEX 01 20:59:41
    TRACK 13 AUDIO
    TITLE "50a. 'Sie schrieen aber noch mehr' (Evangelista) / 50b. Chorus I & II 'Lass ihn kreuzigen!' / 50c / 50d / 50e"
    PERFORMER "Akademie fur Alte Musik Berlin, Rene Jacobs"
    INDEX 01 24:40:43
    TRACK 14 AUDIO
    TITLE "51. Recitativo (Alt) 'Erbarm es Gott'"
    PERFORMER "Akademie fur Alte Musik Berlin, Rene Jacobs"
    INDEX 01 26:33:24
    TRACK 15 AUDIO
    TITLE "52. Aria (Alt) 'Konnen Tranen meiner Wangen'"
    PERFORMER "Akademie fur Alte Musik Berlin, Rene Jacobs"
    INDEX 01 27:22:67
    TRACK 16 AUDIO
    TITLE "53a. 'Da nahmen die Kriegsknechte' (Evangelista) / 53b. Chorus I & II 'Gegrusset seist du, Judenkonig' / 53c. 'Und speieten ihn an' (Evangelista)"
    PERFORMER "Akademie fur Alte Musik Berlin, Rene Jacobs"
    INDEX 01 32:48:08
    TRACK 17 AUDIO
    TITLE "54. Choral 'O Haupt voll Blut und Wunden'"
    PERFORMER "Akademie fur Alte Musik Berlin, Rene Jacobs"
    INDEX 01 33:45:25
    TRACK 18 AUDIO
    TITLE "55. 'Und da sie ihn verspottet hatten' (Evangelista)"
    PERFORMER "Akademie fur Alte Musik Berlin, Rene Jacobs"
    INDEX 01 36:15:20
    TRACK 19 AUDIO
    TITLE "56. Recitativo (Bass) 'Ja! freilich will in uns das Fleisch und Blut'"
    PERFORMER "Akademie fur Alte Musik Berlin, Rene Jacobs"
    INDEX 01 36:58:07
    TRACK 20 AUDIO
    TITLE "57. Aria (Bass) 'Komm, susses Kreuz'"
    PERFORMER "Akademie fur Alte Musik Berlin, Rene Jacobs"
    INDEX 01 37:27:25
    TRACK 21 AUDIO
    TITLE "58a. 'Und da sie an die Statte kamen' (Evangelista) / 58b. Chorus I & II 'Der du den Tempel Gottes zerbrichst' / 58c / 58d / 58e"
    PERFORMER "Akademie fur Alte Musik Berlin, Rene Jacobs"
    INDEX 01 42:54:59
    TRACK 22 AUDIO
    TITLE "59. Recitativo (Alt) 'Ach, Golgatha, unsel'ges Golgatha'"
    PERFORMER "Akademie fur Alte Musik Berlin, Rene Jacobs"
    INDEX 01 46:14:55
    TRACK 23 AUDIO
    TITLE "60. Aria (Alt, Chorus II) 'Sehet Jesus hat die Hand'"
    PERFORMER "Akademie fur Alte Musik Berlin, Rene Jacobs"
    INDEX 01 47:39:01
    TRACK 24 AUDIO
    TITLE "61a. 'Und von der sechsten Stunde' (Evangelista, Jesus) / 61b. Chorus I 'Der rufet dem Elias' / 61c / 61d / 61e"
    PERFORMER "Akademie fur Alte Musik Berlin, Rene Jacobs"
    INDEX 01 51:02:09
    TRACK 25 AUDIO
    TITLE "62. Choral 'Wenn ich einmal soll scheiden'"
    PERFORMER "Akademie fur Alte Musik Berlin, Rene Jacobs"
    INDEX 01 53:06:27
    TRACK 26 AUDIO
    TITLE "63a. 'Und siehe da, der Vorhang im Tempel zerriss' (Evangelista) / 63b. Chorus I & II 'Wahrlich, dieser ist Gottes Sohn gewesen' / 63c. Und es waren viel Weiber da (Evangelista)"
    PERFORMER "Akademie fur Alte Musik Berlin, Rene Jacobs"
    INDEX 01 54:26:05
    TRACK 27 AUDIO
    TITLE "64. Recitativo (Bass) Am Abend da es kuhle war'"
    PERFORMER "Akademie fur Alte Musik Berlin, Rene Jacobs"
    INDEX 01 56:42:68
    TRACK 28 AUDIO
    TITLE "65. Aria (Bass) 'Mache dich, mein Herze, rein'"
    PERFORMER "Akademie fur Alte Musik Berlin, Rene Jacobs"
    INDEX 01 58:35:09
    TRACK 29 AUDIO
    TITLE "66a. 'Und Joseph nahm den Lieb' (Evangelista) / 66b. Chorus I & II 'Herr, wir haben gedacht' / 66c. 'Pilatus sprach zu ihnen' (Evangelista, Pilatus)"
    PERFORMER "Akademie fur Alte Musik Berlin, Rene Jacobs"
    INDEX 01 64:34:49
    TRACK 30 AUDIO
    TITLE "67. Recitativo (SATB, Chorus I & II) 'Nun ist der Herr zur Ruh gebracht'"
    PERFORMER "Akademie fur Alte Musik Berlin, Rene Jacobs"
    INDEX 01 66:50:21
    TRACK 31 AUDIO
    TITLE "68. Chorus I & II 'Wir setzen uns mit Tranen nieder'"
    PERFORMER "Akademie fur Alte Musik Berlin, Rene Jacobs"
    INDEX 01 68:48:54
    TRACK 32 AUDIO
    TITLE "Anhang 56. Recitativo (Bass) 'Ja! freilich will in uns das Fleisch und Blut' (Fassung fur Gambe)"
    PERFORMER "Akademie fur Alte Musik Berlin, Rene Jacobs"
    INDEX 00 73:34:55
    INDEX 01 73:44:64
    TRACK 33 AUDIO
    TITLE "Anhang 57. Aria (Bass) 'Komm, susses Kreuz' (Fassung fur Gambe)"
    PERFORMER "Akademie fur Alte Musik Berlin, Rene Jacobs"
    INDEX 01 74:17:01
    Доп. информация: Выкладываю исключительно для ознакомления, т.к. эту запись предпочтительнее слушать в многоканальном варианте, Hi-Res либо SACD.
    Bonus DVD "Rediscovering the Saint Matthew Passion" - документальный фильм о записи: http://teatrix.ru/viewtopic.php?t=4591174
    [teatrix.ru].t17854.torrent 
    Торрент: Зарегистрирован [ 2016-03-17 00:48 ] · 89E8BC850B77B9AB9669D2FB883060EBA39C1672

    Скачать .torrent

    Скачать

    43 KB

    Статус: проверено
    Скачан: 0 раз
    Размер: 951 MB
    terms.php



  • Быстрый ответ

    Имя:

          
    Для отправки сообщений необходимо включить JavaScript
    Показать сообщения:    

    Текущее время: 11-Дек 03:21

    Часовой пояс: UTC + 3


    Вы можете начинать темы
    Вы можете отвечать на сообщения
    Вы не можете редактировать свои сообщения
    Вы не можете удалять свои сообщения
    Вы не можете голосовать в опросах
    Вы не можете прикреплять файлы к сообщениям
    Вы можете скачивать файлы