Тайны советского кино. Человек с бульвара Капуцинов (Максим Володин) [2012, Документальный, DVB]


Статистика раздачи [Обновить пиров]
Размер:  675 MB   |    Зарегистрирован:  8 месяцев 25 дней   |    Скачан:  0 раз

Полного источника не было: Никогда

 
   
 
 
 

[Цитировать]

Тайны советского кино. Человек с бульвара Капуцинов- Год выпуска: 2012
Страна: Россия
Жанр: документальный
Продолжительность: 00:26:00
Перевод: Не требуется
Русские субтитры: нет-Режиссер: Максим Володин-Ведущий: Иван Усачёв-Участники:
Алла Сурикова - режиссёр, Геннадий Беленький - оператор, Эдуард Акопов - сценарист, Лариса Долина - певица, Сергей Микульский - оружейник, актеры: Олег Табаков, Антон Табаков, Леонид Ярмольник, Лев Дуров, Михаил Боярский, Людмила Поргина и другие.
Описание:Рассказ о том, как снимался фильм "Человек с бульвара Капуцинов" — первый российский вестерн о диком западе, который сняла женщина. Фильм о великой силе синематографа вошёл в сотню лучших картин о кино 20 века и в этом году празднует свой 25--летний юбилей.
Где снимали пейзажи запада и откуда брали реквизит для съемок? Кто исполнял трюки за Николая Караченцова? Как менял свою внешность Олег Табаков? Почему актриса Александра Яковлева ушла из кино? И успел ли Андрей Миронов увидеть свой последний фильм?
-качество: DVB
формат: MPEG-PS
видеокодек: MPEG2
аудиокодек: MP2
Видео: MPEG-2, 3367 Кбит/с, 720x576@768x576
Аудио: MP2, 2 ch, 192 Кбит/с

MediaInfo

Общее
Полное имя : D:\Тайны советского кино. Человек с бульвара Капуцинов. 2012.DVB.Doc66.mpg
Формат : MPEG-PS
Размер файла : 675 Мбайт
Продолжительность : 26 м.
Режим общего битрейта : Переменный
Общий поток : 3631 Кбит/сек
Видео
Идентификатор : 224 (0xE0)
Формат : MPEG Video
Версия формата : Version 2
Профиль формата : Main@Main
Параметр BVOP формата : Да
Параметр матрицы формата : Выборочная
Параметр GOP формата : M=3, N=24
Продолжительность : 26 м.
Вид битрейта : Переменный
Битрейт : 3367 Кбит/сек
Максимальный битрейт : 15,0 Мбит/сек
Ширина : 720 пикселей
Высота : 576 пикселей
Соотношение сторон : 4:3
Частота кадров : 25,000 кадров/сек
Стандарт вещания : PAL
Цветовое пространство : YUV
Субдискретизация насыщенности : 4:2:0
Битовая глубина : 8 бит
Метод сжатия : С потерями
Бит/(Пиксели*Кадры) : 0.325
Временной код первого кадра : 00:00:00:00
Оригинал временного кода : Group of pictures header
Размер потока : 626 Мбайт (93%)
Аудио
Идентификатор : 192 (0xC0)
Формат : MPEG Audio
Версия формата : Version 1
Профиль формата : Layer 2
Продолжительность : 26 м.
Вид битрейта : Постоянный
Битрейт : 192 Кбит/сек
Каналы : 2 канала
Частота : 48,0 КГц
Метод сжатия : С потерями
Размер потока : 35,7 Мбайт (5%)

Скриншоты

Тайны советского кино
[teatrix.ru].t17855.torrent 
Торрент: Зарегистрирован [ 2016-03-17 00:48 ] · 9EEE4EFE6B9E5A241B67F46B1944522B1E231998

Скачать .torrent

Скачать

14 KB

Статус: проверено
Скачан: 0 раз
Размер: 675 MB
terms.php



Показать сообщения:    

Текущее время: 11-Дек 05:21

Часовой пояс: UTC + 3


Вы не можете начинать темы
Вы не можете отвечать на сообщения
Вы не можете редактировать свои сообщения
Вы не можете удалять свои сообщения
Вы не можете голосовать в опросах
Вы не можете прикреплять файлы к сообщениям
Вы можете скачивать файлы