Бардо: Совсем не та / Bardot, la méprise (Давид Тебуль / David Teboul) [2013, Док. фильм, SATRip]


Статистика раздачи [Обновить пиров]
Размер:  649 MB   |    Зарегистрирован:  8 месяцев 18 дней   |    Скачан:  0 раз

Полного источника не было: Никогда

 
   
 
 
 

[Цитировать]

Бардо: Совсем не та / Bardot, la méprise
Год выпуска: 2013
Страна: Франция
Жанр: Док. фильм
Продолжительность: 01:54:14
Перевод: Субтитры
Русские субтитры: есть
Режиссер: Давид Тебуль / David Teboul
Описание: Полнометражный документальный фильм о знаменитой французской актрисе.
SATRip от : Твид
Доп. информация: Любезно предоставлено клубом Fenix
Сэмпл: http://multi-up.com/924006
качество: SATRip
формат: AVI
Видео: XviD, 660 kb/s, 640x480, 25 fps, 0.086 bits/pixel
Аудио: 0x0055(MP3) ID'd as MPEG-1 Layer 3, 128 kb/s (2/ch, stereo) CBR, 48000 Hz - Французский

MediaInfo

Общее
Полное имя : D:\FILMS\Bardo_Sovsem ne ta.SAT-rip.by.Твид.fenixclub.avi
Формат : AVI
Формат/Информация : Audio Video Interleave
Размер файла : 649 Мбайт
Продолжительность : 1 ч. 54 м.
Общий поток : 794 Кбит/сек
Видео
Идентификатор : 0
Формат : MPEG-4 Visual
Профиль формата : Advanced Simple@L5
Параметр BVOP формата : 2
Параметр QPel формата : Нет
Параметр GMC формата : Без точки перехода
Параметр матрицы формата : Default (H.263)
Идентификатор кодека : XVID
Идентификатор кодека/Подсказка : XviD
Продолжительность : 1 ч. 54 м.
Битрейт : 656 Кбит/сек
Ширина : 640 пикселей
Высота : 480 пикселей
Соотношение сторон : 4:3
Частота кадров : 25,000 кадров/сек
Цветовое пространство : YUV
Субдискретизация насыщенности : 4:2:0
Битовая глубина : 8 бит
Тип развёртки : Прогрессивная
Метод сжатия : С потерями
Бит/(Пиксели*Кадры) : 0.085
Размер потока : 536 Мбайт (83%)
Библиотека кодирования : XviD 1.1.2 (UTC 2006-11-01)
Аудио
Идентификатор : 1
Формат : MPEG Audio
Версия формата : Version 1
Профиль формата : Layer 3
Режим : Joint stereo
Расширение режима : MS Stereo
Идентификатор кодека : 55
Идентификатор кодека/Подсказка : MP3
Продолжительность : 1 ч. 54 м.
Вид битрейта : Постоянный
Битрейт : 128 Кбит/сек
Каналы : 2 канала
Частота : 48,0 КГц
Метод сжатия : С потерями
Размер потока : 105 Мбайт (16%)
Выравнивание : Разделение по промежуткам
Продолжительность промежутка : 40 мс. (1,00 видеокадр)
Время предзагрузки промежутка : 500 мс.

Скриншоты

[teatrix.ru].t17856.torrent 
Торрент: Зарегистрирован [ 2016-03-17 00:48 ] · 5FEBF906BE70413C531AC044071778C0A99B7E25

Скачать .torrent

Скачать

13 KB

Статус: проверено
Скачан: 0 раз
Размер: 649 MB
terms.php



Показать сообщения:    

Текущее время: 04-Дек 11:13

Часовой пояс: UTC + 3


Вы не можете начинать темы
Вы не можете отвечать на сообщения
Вы не можете редактировать свои сообщения
Вы не можете удалять свои сообщения
Вы не можете голосовать в опросах
Вы не можете прикреплять файлы к сообщениям
Вы можете скачивать файлы