(Classical) Piazzolla-Monteverdi - Una Utopia Argentina - Cappella Mediterranea, Leonardo Garcia Alarcon - 2012, FLAC (image+.cue) lossless


 

[Цитировать]

Piazzolla-Monteverdi - Una Utopia Argentina - Cappella Mediterranea, Leonardo García Alarcón
Жанр: Classical
Страна-производитель диска: France
Год издания диска: 2012
Издатель (лейбл): Ambronay
Номер по каталогу: AMY034
Дата записи: 2012
Аудиокодек: FLAC
Тип рипа: image+.cue
Битрейт аудио: lossless
Продолжительность: 71:25
Источник: собственный рип
Наличие сканов в содержимом раздачи: да
Треклист:
[1] Monteverdi: L'Orfeo - Sinfonia
[2] Monteverdi: Il ritorno d'Ulisse in patria - Dormo ancora
[3] Piazzolla: Serie del Diablo - Romance del Diablo
[4] Piazzolla: Chiquilin de Bachin
[5] Piazzolla: Serie del Angel - Muerte del Angel
[6] Monteverdi: L'Orfeo - Vi ricorda, o boschi ombrosi
[7] Monteverdi: L'incoronazione di Poppea - Pur ti miro
[8] Piazzolla: Serie del Angel - Milonga del Angel
[9] Piazzolla: Balada para un loco
[10] Monteverdi: VIII Libro dei Madrigali - Lamento della ninfa
[11] Piazzolla: Michelangelo 70
[12] Piazzolla: Vuelvo al Sur
[13] Monteverdi: Il ritorno d'Ulisse in patria - Sinfonia y Quejas
[14] Piazzolla: Jacinto Chiclana
[15] Monteverdi: Il Vespro della beata Vergine - Benedicta
[16] Troilo: La ultima curda
[17] Piazzolla: Balada para mi muerte
[18] Monteverdi: Selva morale e spirituale - Crucifixus
Исполнители:
Cappella Mediterranea
Leonardo García Alarcón

Лог создания рипа

Exact Audio Copy V1.0 beta 3 from 29. August 2011
EAC extraction logfile from 16. October 2013, 17:42
Cappella Mediterranea, Leonardo Garcia Alarcon / Piazzolla-Monteverdi - Una Utopia Argentina
Used drive : HL-DT-STDVDRRW GWA-4164B Adapter: 5 ID: 0
Read mode : Secure
Utilize accurate stream : Yes
Defeat audio cache : Yes
Make use of C2 pointers : No
Read offset correction : 102
Overread into Lead-In and Lead-Out : No
Fill up missing offset samples with silence : Yes
Delete leading and trailing silent blocks : No
Null samples used in CRC calculations : Yes
Used interface : Native Win32 interface for Win NT & 2000
Used output format : User Defined Encoder
Selected bitrate : 896 kBit/s
Quality : High
Add ID3 tag : No
Command line compressor : C:\Program Files\Exact Audio Copy\FLAC\FLAC.EXE
Additional command line options : -V -8 %source%
TOC of the extracted CD
Track | Start | Length | Start sector | End sector
---------------------------------------------------------
1 | 0:00.00 | 2:24.56 | 0 | 10855
2 | 2:24.56 | 3:39.47 | 10856 | 27327
3 | 6:04.28 | 5:07.70 | 27328 | 50422
4 | 11:12.23 | 5:14.48 | 50423 | 74020
5 | 16:26.71 | 2:59.56 | 74021 | 87501
6 | 19:26.52 | 1:33.01 | 87502 | 94477
7 | 20:59.53 | 4:14.19 | 94478 | 113546
8 | 25:13.72 | 5:41.35 | 113547 | 139156
9 | 30:55.32 | 4:33.12 | 139157 | 159643
10 | 35:28.44 | 5:20.58 | 159644 | 183701
11 | 40:49.27 | 3:12.39 | 183702 | 198140
12 | 44:01.66 | 3:48.03 | 198141 | 215243
13 | 47:49.69 | 1:48.12 | 215244 | 223355
14 | 49:38.06 | 6:01.50 | 223356 | 250480
15 | 55:39.56 | 3:03.73 | 250481 | 264278
16 | 58:43.54 | 5:13.28 | 264279 | 287781
17 | 63:57.07 | 5:16.02 | 287782 | 311483
18 | 69:13.09 | 2:27.45 | 311484 | 322553
Range status and errors
Selected range
Filename C:\temp\Piazzolla-Monteverdi - Una Utopia Argentina\Piazzolla-Monteverdi - Una Utopia Argentina.wav
Peak level 99.0 %
Extraction speed 2.8 X
Range quality 99.9 %
Test CRC FEEEA2AF
Copy CRC FEEEA2AF
Copy OK
No errors occurred
AccurateRip summary
Track 1 accurately ripped (confidence 1) [C904B14A] (AR v2)
Track 2 accurately ripped (confidence 1) [F97B9F3E] (AR v2)
Track 3 accurately ripped (confidence 1) [7A86DD41] (AR v2)
Track 4 accurately ripped (confidence 1) [6D669C8D] (AR v2)
Track 5 accurately ripped (confidence 1) [FC55368F] (AR v2)
Track 6 accurately ripped (confidence 1) [A9CED4A7] (AR v2)
Track 7 accurately ripped (confidence 1) [6EA9030B] (AR v2)
Track 8 accurately ripped (confidence 1) [96B32119] (AR v2)
Track 9 accurately ripped (confidence 1) [1E8CD988] (AR v2)
Track 10 accurately ripped (confidence 1) [1BFC400F] (AR v2)
Track 11 accurately ripped (confidence 1) [9883430C] (AR v2)
Track 12 accurately ripped (confidence 1) [A43130B1] (AR v2)
Track 13 accurately ripped (confidence 1) [7BD1B35C] (AR v2)
Track 14 accurately ripped (confidence 1) [E53FE714] (AR v2)
Track 15 accurately ripped (confidence 1) [A1A5F84D] (AR v2)
Track 16 accurately ripped (confidence 1) [13529BDE] (AR v2)
Track 17 accurately ripped (confidence 1) [50AD2FCF] (AR v2)
Track 18 accurately ripped (confidence 1) [552C69DE] (AR v2)
All tracks accurately ripped
End of status report
==== Log checksum EF5CC0B2F0F65F972954F4AF45C351CF02BF503F7ED6E4549DA7E6F15B266F2D ====



Показать сообщения:    

Текущее время: 09-Дек 12:40

Часовой пояс: UTC + 3


Вы не можете начинать темы
Вы не можете отвечать на сообщения
Вы не можете редактировать свои сообщения
Вы не можете удалять свои сообщения
Вы не можете голосовать в опросах
Вы не можете прикреплять файлы к сообщениям
Вы не можете скачивать файлы