(Classical) John Corigliano - Conjurer & Vocalise (Evelyn Glennie / Hila Plitmann / David Alan Miller ) - 2013, FLAC (image+.cue) lossless


Статистика раздачи [Обновить пиров]
Размер:  236 MB   |    Зарегистрирован:  8 месяцев 20 дней   |    Скачан:  0 раз

Полного источника не было: Никогда

 
   
 
 
 

[Цитировать]

John Corigliano - Conjurer & Vocalise
Жанр: Classical
Страна-производитель диска: USA
Год издания диска: 2013
Издатель (лейбл): Naxos
Номер по каталогу: 8.559757
Дата записи: 13.III.2011 (Conjurer) & 22.V.2011 (Vocalise)
Аудиокодек: FLAC
Тип рипа: image+.cue
Битрейт аудио: lossless
Продолжительность: 57'40"
Источник: собственный рип
Наличие сканов в содержимом раздачи: да
Треклист:
Conjurer
1. Cadenza I
2. Movement I: WOOD
3. Cadenza II
4. Movement II: METAL
5. Cadenza III
6. Movement III: SKIN
7. Vocalise
Исполнители:
Dame Evelyn Glennie, percussion
Hila Plitmann, soprano
Mark Baechle, electronics
Albany Symphony
David Alan Miller-

Лог создания рипа

Exact Audio Copy V1.0 beta 1 from 15. November 2010
EAC extraction logfile from 16. November 2013, 1:35
John Corigliano / Conjurer & Vocalise
Used drive : Optiarc DVD RW AD-7203A Adapter: 4 ID: 1
Read mode : Secure
Utilize accurate stream : Yes
Defeat audio cache : Yes
Make use of C2 pointers : No
Read offset correction : 48
Overread into Lead-In and Lead-Out : No
Fill up missing offset samples with silence : Yes
Delete leading and trailing silent blocks : No
Null samples used in CRC calculations : Yes
Used interface : Native Win32 interface for Win NT & 2000
Used output format : User Defined Encoder
Selected bitrate : 128 kBit/s
Quality : High
Add ID3 tag : No
Command line compressor : C:\Program Files\FLAC\flac.exe
Additional command line options : -T "COMMENT=Ripped by GFox" -8 -V %s
TOC of the extracted CD
Track | Start | Length | Start sector | End sector
---------------------------------------------------------
1 | 0:00.00 | 3:39.51 | 0 | 16475
2 | 3:39.51 | 6:09.41 | 16476 | 44191
3 | 9:49.17 | 2:38.43 | 44192 | 56084
4 | 12:27.60 | 11:58.08 | 56085 | 109942
5 | 24:25.68 | 2:33.69 | 109943 | 121486
6 | 26:59.62 | 9:26.43 | 121487 | 163979
7 | 36:26.30 | 21:14.30 | 163980 | 259559
Range status and errors
Selected range
Filename D:\EAC\John Corigliano - Conjurer & Vocalise.wav
Peak level 98.5 %
Extraction speed 1.5 X
Range quality 100.0 %
Test CRC 19435ADA
Copy CRC 19435ADA
Copy OK
No errors occurred
AccurateRip summary
Track 1 accurately ripped (confidence 2) [A10B0D44]
Track 2 accurately ripped (confidence 2) [A226AB46]
Track 3 accurately ripped (confidence 2) [1592A89D]
Track 4 accurately ripped (confidence 2) [919545BE]
Track 5 accurately ripped (confidence 2) [B3D55696]
Track 6 accurately ripped (confidence 2) [D9649EE6]
Track 7 accurately ripped (confidence 2) [6BBF9460]
All tracks accurately ripped
End of status report
==== Log checksum B1D481EDFEE4F845303DFCB043E090C6BD2E1E422981058BA14DA4F1FF346ACE ====
-
[teatrix.ru].t17858.torrent 
Торрент: Зарегистрирован [ 2016-03-17 00:48 ] · 2672FAA1B4FB6ABE9A7A94E5EE919DB4E15CB701

Скачать .torrent

Скачать

19 KB

Статус: проверено
Скачан: 0 раз
Размер: 236 MB
terms.php



Быстрый ответ

Имя:

      
Для отправки сообщений необходимо включить JavaScript
Показать сообщения:    

Текущее время: 06-Дек 22:54

Часовой пояс: UTC + 3


Вы можете начинать темы
Вы можете отвечать на сообщения
Вы не можете редактировать свои сообщения
Вы не можете удалять свои сообщения
Вы не можете голосовать в опросах
Вы не можете прикреплять файлы к сообщениям
Вы можете скачивать файлы