(Choral) Leos Janacek - Glagolitic Mass (Original Version); Zoltan Kodaly - Psalmus Hungaricus (The Danish National Radio Symphony Orchestra & Choir, Charles Mackerras) - 1994, FLAC (image+.cue) lossless


Статистика раздачи [Обновить пиров]
Размер:  285 MB   |    Зарегистрирован:  8 месяцев 24 дня   |    Скачан:  2 раза

Полного источника не было: 1 месяц 8 дней

 
   
 
 
 

[Цитировать]

Leoš Janáček - Glagolitic Mass | Zoltán Kodály - Psalmus HungaricusThe Danish National Radio Symphony Orchestra & Choir | Sir Charles Mackerras Жанр: Choral
Страна-производитель диска: Austria
Год издания диска: 1994
Издатель (лейбл): Chandos
Номер по каталогу: Chan 3910
Дата записи: 1994
Аудиокодек: FLAC
Тип рипа: image+.cue
Битрейт аудио: lossless
Продолжительность: 62:44
Источник: скачано с odeonmusic
Наличие сканов в содержимом раздачи: да
Треклист:
Leos Janáček - Mass (Msa glagolskaja) for soloists, double chorus, orchestra & organ ("Glagolitic Mass"), JW 3/9
1 Intrada 1:46
2 Úvod 2:13
3 Gospodi pomiluj 3:22
4 Slava 6:14
5 Veruju 11:45
6 Svet 6:12
7 Agnece Bozij 4:26
8 Varhany solo 2:41
9 Intrada 1:51
10 Zoltán Kodály - Psalmus Hungaricus, oratorio for tenor, chorus, children's chorus ad lib, orchestra & organ, Op. 13 22:09
Исполнители:
The Danish National Radio Symphony Orchestra & Choir
Sir Charles Mackerras - conductor

Лог создания рипа

Exact Audio Copy V1.0 beta 3 from 29. August 2011
EAC extraction logfile from 2. October 2013, 9:31
Charles Mackerras / Janacek - Glagolitic Mass; Kodály - Psalmus Hungaricus - Mackerras
Used drive : TSSTcorpCDDVDW SH-222BB Adapter: 2 ID: 1
Read mode : Secure
Utilize accurate stream : Yes
Defeat audio cache : Yes
Make use of C2 pointers : No
Read offset correction : 6
Overread into Lead-In and Lead-Out : No
Fill up missing offset samples with silence : Yes
Delete leading and trailing silent blocks : No
Null samples used in CRC calculations : Yes
Used interface : Native Win32 interface for Win NT & 2000
Used output format : User Defined Encoder
Selected bitrate : 1024 kBit/s
Quality : High
Add ID3 tag : No
Command line compressor : C:\Program Files\Exact Audio Copy\Flac\flac.exe
Additional command line options : -8 -V -T "TITLE=%title%" -T "ARTIST=%artist%" -T "ALBUMARTIST=%albumartist%" -T "ALBUM=%albumtitle%" -T "DATE=%year%" -T "TRACKNUMBER=%tracknr%" -T "TRACKTOTAL=%numtracks%" -T "GENRE=%genre%" -T "COMMENT=%comment%" -T "PERFORMER=%albuminterpret%" -T "COMPOSER=%composer%" %source% -o %dest%
TOC of the extracted CD
Track | Start | Length | Start sector | End sector
---------------------------------------------------------
1 | 0:00.00 | 1:46.07 | 0 | 7956
2 | 1:46.07 | 2:13.20 | 7957 | 17951
3 | 3:59.27 | 3:22.60 | 17952 | 33161
4 | 7:22.12 | 6:14.43 | 33162 | 61254
5 | 13:36.55 | 11:45.32 | 61255 | 114161
6 | 25:22.12 | 6:12.73 | 114162 | 142134
7 | 31:35.10 | 4:26.40 | 142135 | 162124
8 | 36:01.50 | 2:41.00 | 162125 | 174199
9 | 38:42.50 | 1:51.37 | 174200 | 182561
10 | 40:34.12 | 22:09.70 | 182562 | 282306
Range status and errors
Selected range
Filename G:\Ripped general\[8490] Janacek – Glagolitic Mass; Kodály – Psalmus Hungaricus – Mackerras\Janacek - Glagolitic Mass; Kodály - Psalmus Hungaricus - Mackerras.wav
Peak level 97.6 %
Extraction speed 7.2 X
Range quality 100.0 %
Test CRC B8B73B4E
Copy CRC B8B73B4E
Copy OK
No errors occurred
AccurateRip summary
Track 1 cannot be verified as accurate (confidence 20) [2EAD72B8], AccurateRip returned [E0CF962F] (AR v2)
Track 2 cannot be verified as accurate (confidence 20) [721A8F95], AccurateRip returned [6EEE43F2] (AR v2)
Track 3 cannot be verified as accurate (confidence 20) [3736B67F], AccurateRip returned [A77B46DC] (AR v2)
Track 4 cannot be verified as accurate (confidence 20) [3D4B582C], AccurateRip returned [87BCE2F6] (AR v2)
Track 5 cannot be verified as accurate (confidence 20) [A4424897], AccurateRip returned [95D89B92] (AR v2)
Track 6 cannot be verified as accurate (confidence 20) [653ED086], AccurateRip returned [CF2BEBB4] (AR v2)
Track 7 cannot be verified as accurate (confidence 20) [7EBFF815], AccurateRip returned [1EE6424D] (AR v2)
Track 8 cannot be verified as accurate (confidence 20) [5D7C8204], AccurateRip returned [DD8A7E3A] (AR v2)
Track 9 cannot be verified as accurate (confidence 20) [4D15F47E], AccurateRip returned [29B4DC29] (AR v2)
Track 10 cannot be verified as accurate (confidence 19) [94B024B5], AccurateRip returned [86128EB1] (AR v2)
No tracks could be verified as accurate
You may have a different pressing from the one(s) in the database
End of status report

Лог проверки качества

AUDIOCHECKER v2.0 beta (build 457) - by Dester - opdester@freemail.hu
~~~~~~~~~~~~~~~~~~~~~~~~~~~~~~~~~~
-=== DO NOT EDIT THIS FILE! ===-
Path: ...\JanGlaMus8490Mac-EAC_FLAC
1 -=- Janacek - Glagolitic Mass; Kodaly - Psalmus Hungaricus - Mackerras.flac -=- CDDA (100%)
38334756
[teatrix.ru].t17860.torrent 
Торрент: Зарегистрирован [ 2016-03-17 00:48 ] · 4ACFF059E0DC2BA604C0FD6551FFAED600766C4C

Скачать .torrent

Скачать

13 KB

Статус: проверено
Скачан: 2 раз
Размер: 285 MB
terms.php



Быстрый ответ

Имя:

      
Для отправки сообщений необходимо включить JavaScript
Показать сообщения:    

Текущее время: 10-Дек 15:47

Часовой пояс: UTC + 3


Вы можете начинать темы
Вы можете отвечать на сообщения
Вы не можете редактировать свои сообщения
Вы не можете удалять свои сообщения
Вы не можете голосовать в опросах
Вы не можете прикреплять файлы к сообщениям
Вы можете скачивать файлы