(Contemporary) Benjamin Britten - War Requiem (Annette Dasch.James Taylor.Christian Gerhaher/Aurelius Sangerknaben Calw/Festivalensemble Stuttgart-Hellmuth Rilling) - 2008, FLAC (image+.cue) lossless


Статистика раздачи [Обновить пиров]
Размер:  290 MB   |    Зарегистрирован:  8 месяцев 24 дня   |    Скачан:  0 раз

Полного источника не было: Никогда

 
   
 
 
 

[Цитировать]

Benjamin Britten - War Requiem
Жанр: Contemporary
Страна-производитель диска: Germany
Год издания диска: 2008
Издатель (лейбл): hänssler
Номер по каталогу: CD 08.507
Дата записи: 2007
Аудиокодек: FLAC
Тип рипа: image+.cue
Битрейт аудио: lossless
Продолжительность: 46:08+36:27
Источник: скачано с avaxhome
Наличие сканов в содержимом раздачи: да
Треклист:
1-1 I. Requiem aeternam 9:23
1-2 II. Dies irae 26:15
1-3 III. Offertorium 10:32
2-1 IV. Sanctus 9:54
2-2 V. Agnus Dei 3:28
2-3 VI. Libera me 23:05
Исполнители:
Annette Dasch, soprano
James Taylor, tenor
Christian Gerhaher, baritone
Aurelius Sängerknaben Calw / Festivalensemble Stuttgart / Hellmuth Rilling

Лог создания рипа CD1

Exact Audio Copy V1.0 beta 3 from 29. August 2011
EAC extraction logfile from 30. April 2013, 20:42
SWR RO Kaiserslautern, cond. Peter Falk - A. Dasch, J. Taxlor, Ch. Gerhaher / Britten: War Requiem CD#1v2
Used drive : PIONEER BD-RW BDR-206 Adapter: 0 ID: 2
Read mode : Secure
Utilize accurate stream : Yes
Defeat audio cache : Yes
Make use of C2 pointers : No
Read offset correction : 667
Overread into Lead-In and Lead-Out : No
Fill up missing offset samples with silence : Yes
Delete leading and trailing silent blocks : No
Null samples used in CRC calculations : Yes
Used interface : Native Win32 interface for Win NT & 2000
Used output format : User Defined Encoder
Selected bitrate : 1024 kBit/s
Quality : High
Add ID3 tag : Yes
Command line compressor : C:\Program Files\FLAC\flac.exe
Additional command line options : -5 -T "Artist=%artist%" -T "Title=%title%" -T "Album=%albumtitle%" -T "Date=%year%" -T "Tracknumber=%tracknr%" -T "Genre=%genre%" %source% -o %dest%
TOC of the extracted CD
Track | Start | Length | Start sector | End sector
---------------------------------------------------------
1 | 0:00.00 | 9:22.65 | 0 | 42214
2 | 9:22.65 | 26:15.07 | 42215 | 160346
3 | 35:37.72 | 10:31.54 | 160347 | 207725
Range status and errors
Selected range
Filename F:\=== VINYL RIPS ===\=== EAC===\X FRESH RIP\Britten- War Requiem CD#1v2.wav
Peak level 93.4 %
Extraction speed 1.7 X
Range quality 100.0 %
Copy CRC 2A734AC5
Copy OK
No errors occurred
AccurateRip summary
Track 1 accurately ripped (confidence 6) [F21D12FE] (AR v1)
Track 2 accurately ripped (confidence 6) [C088C3EF] (AR v1)
Track 3 accurately ripped (confidence 6) [0DC2AA50] (AR v1)
All tracks accurately ripped
End of status report
---- CUETools DB Plugin V2.1.3
[CTDB TOCID: 3HXZhJ2iBtxeOzZRHfKpZilqqRw-] found, Submit result: 3HXZhJ2iBtxeOzZRHfKpZilqqRw- has been uploaded
[85487324] (1/1) No match
==== Log checksum E917599F62AA126C2B0D334E9876C2B00A06BD2A2875DDCDDA6F3E64CFE58E6A ====

Лог создания рипа CD2

Exact Audio Copy V1.0 beta 3 from 29. August 2011
EAC extraction logfile from 30. April 2013, 20:08
SWR RO Kaiserslautern, cond. Peter Falk - A. Dasch, J. Taxlor, Ch. Gerhaher / Britten: War Requiem CD#2v2
Used drive : PIONEER BD-RW BDR-206 Adapter: 0 ID: 2
Read mode : Secure
Utilize accurate stream : Yes
Defeat audio cache : Yes
Make use of C2 pointers : No
Read offset correction : 667
Overread into Lead-In and Lead-Out : No
Fill up missing offset samples with silence : Yes
Delete leading and trailing silent blocks : No
Null samples used in CRC calculations : Yes
Used interface : Native Win32 interface for Win NT & 2000
Used output format : User Defined Encoder
Selected bitrate : 1024 kBit/s
Quality : High
Add ID3 tag : Yes
Command line compressor : C:\Program Files\FLAC\flac.exe
Additional command line options : -5 -T "Artist=%artist%" -T "Title=%title%" -T "Album=%albumtitle%" -T "Date=%year%" -T "Tracknumber=%tracknr%" -T "Genre=%genre%" %source% -o %dest%
TOC of the extracted CD
Track | Start | Length | Start sector | End sector
---------------------------------------------------------
1 | 0:00.00 | 9:54.02 | 0 | 44551
2 | 9:54.02 | 3:27.71 | 44552 | 60147
3 | 13:21.73 | 23:05.27 | 60148 | 164049
Range status and errors
Selected range
Filename F:\=== VINYL RIPS ===\=== EAC===\X FRESH RIP\Britten- War Requiem CD#2v2.wav
Peak level 90.9 %
Extraction speed 1.6 X
Range quality 100.0 %
Copy CRC A16B8886
Copy OK
No errors occurred
AccurateRip summary
Track 1 accurately ripped (confidence 6) [C33F99D9] (AR v1)
Track 2 accurately ripped (confidence 6) [6BCDD248] (AR v1)
Track 3 accurately ripped (confidence 6) [7C68E45E] (AR v1)
All tracks accurately ripped
End of status report
---- CUETools DB Plugin V2.1.3
[CTDB TOCID: aWQe1JnacGeDII7B2wqmajrHLtc-] found, Submit result: aWQe1JnacGeDII7B2wqmajrHLtc- has been uploaded
[11c53c13] (1/1) No match
==== Log checksum FF4254AC00CEE7B2629E4AAB63D9F2C3A01962028F29F2BDEBFF7E2E531E352E ====

Лог проверки качества

AUDIOCHECKER v2.0 beta (build 457) - by Dester - opdester@freemail.hu
~~~~~~~~~~~~~~~~~~~~~~~~~~~~~~~~~~
-=== DO NOT EDIT THIS FILE! ===-
Path: ...\CDs
1 -=- Britten- War Requiem CD#1v2.flac -=- CDDA (100%)
2 -=- Britten- War Requiem CD#2v2.flac -=- CDDA (94%)
Summary 97,00% CDDA
151243060
[teatrix.ru].t17861.torrent 
Торрент: Зарегистрирован [ 2016-03-17 00:48 ] · ED4C82EF859C723199D76C86B63F117C8D478651

Скачать .torrent

Скачать

12 KB

Статус: проверено
Скачан: 0 раз
Размер: 290 MB
terms.php



Быстрый ответ

Имя:

      
Для отправки сообщений необходимо включить JavaScript
Показать сообщения:    

Текущее время: 10-Дек 13:50

Часовой пояс: UTC + 3


Вы можете начинать темы
Вы можете отвечать на сообщения
Вы не можете редактировать свои сообщения
Вы не можете удалять свои сообщения
Вы не можете голосовать в опросах
Вы не можете прикреплять файлы к сообщениям
Вы можете скачивать файлы