(Classical, sacred cantata) Carl Philipp Emanuel Bach - The Last Suffering of the Saviour - Schlick, de Reyghere, Patriasz, Pregardien, van Egmond; Collegium Vocale Gent, La Petite Bande, Sigiswald Kuijken - 2CD - 2010, FLAC (image+.cue) lossless


Статистика раздачи [Обновить пиров]
Размер:  463 MB   |    Зарегистрирован:  8 месяцев 17 дней   |    Скачан:  0 раз

Полного источника не было: Никогда

 
   
 
 
 

[Цитировать]

Carl Philipp Emanuel Bach - The Last Suffering of the Saviour - Schlick, de Reyghere, Patriasz, Prégardien, van Egmond; Collegium Vocale Gent, La Petite Bande, Sigiswald Kuijken
Жанр: Classical, sacred cantata
Год издания диска: 2010
Издатель (лейбл): Deutsche Harmonia Mundi
Номер по каталогу: 88697 57627 2
Дата записи: 1986
Аудиокодек: FLAC
Тип рипа: image+.cue
Битрейт аудио: lossless
Продолжительность: 119:46
Источник: собственный рип
Наличие сканов в содержимом раздачи: да
Треклист:
Carl Philipp Emanuel Bach (1714-1788)
Die letzten Leiden des Erlösers / The Last Suffering of the Saviour Wq 233
Cantata on the Suffering of the Saviour according to a text from Anna Luise Karsch, Hamburg 1769
CD1
[1]-[12] Die letzten Leiden des Erlösers
CD2
[1]-[14] Die letzten Leiden des Erlösers (conclusion)
Исполнители:
Barbara Schlick & Greta de Reyghere soprano
Catherine Patriasz alto
Christoph Prégardien tenor
Max van Egmond bass
Collegium Vocale Gent
La Petite Bande
Sigiswald Kuijken
conductor

Лог создания рипа: CD1

Exact Audio Copy V1.0 beta 3 from 29. August 2011
EAC extraction logfile from 14. October 2013, 17:36
Collegium Vocale Gent, La Petite Bande, Sigiswald Kuijken / C.P.E. Bach - The Last Suffering of the Saviour, Wq233 - CD1
Used drive : HL-DT-STDVDRRW GWA-4164B Adapter: 5 ID: 0
Read mode : Secure
Utilize accurate stream : Yes
Defeat audio cache : Yes
Make use of C2 pointers : No
Read offset correction : 102
Overread into Lead-In and Lead-Out : No
Fill up missing offset samples with silence : Yes
Delete leading and trailing silent blocks : No
Null samples used in CRC calculations : Yes
Used interface : Native Win32 interface for Win NT & 2000
Used output format : User Defined Encoder
Selected bitrate : 896 kBit/s
Quality : High
Add ID3 tag : No
Command line compressor : C:\Program Files\Exact Audio Copy\FLAC\FLAC.EXE
Additional command line options : -V -8 %source%
TOC of the extracted CD
Track | Start | Length | Start sector | End sector
---------------------------------------------------------
1 | 0:00.33 | 5:04.47 | 33 | 22879
2 | 5:05.05 | 6:29.60 | 22880 | 52114
3 | 11:34.65 | 4:12.33 | 52115 | 71047
4 | 15:47.23 | 6:40.10 | 71048 | 101057
5 | 22:27.33 | 1:26.57 | 101058 | 107564
6 | 23:54.15 | 1:57.65 | 107565 | 116404
7 | 25:52.05 | 5:24.65 | 116405 | 140769
8 | 31:16.70 | 11:54.50 | 140770 | 194369
9 | 43:11.45 | 1:19.18 | 194370 | 200312
10 | 44:30.63 | 4:47.07 | 200313 | 221844
11 | 49:17.70 | 0:57.45 | 221845 | 226164
12 | 50:15.40 | 10:07.03 | 226165 | 271692
Range status and errors
Selected range
Filename D:\temp\Music\C.P.E. Bach - The Last Suffering of the Saviour\C.P.E. Bach - The Last Suffering of the Saviour - CD1.wav
Peak level 76.7 %
Extraction speed 2.9 X
Range quality 100.0 %
Test CRC 18BF5A07
Copy CRC 18BF5A07
Copy OK
No errors occurred
AccurateRip summary
Track 1 cannot be verified as accurate (confidence 3) [701DC77A], AccurateRip returned [1230F901] (AR v2)
Track 2 cannot be verified as accurate (confidence 3) [9D1885E7], AccurateRip returned [DD434DF2] (AR v2)
Track 3 cannot be verified as accurate (confidence 3) [87F409B9], AccurateRip returned [80E7061D] (AR v2)
Track 4 cannot be verified as accurate (confidence 3) [4201CA80], AccurateRip returned [5EAFC347] (AR v2)
Track 5 cannot be verified as accurate (confidence 3) [9B844121], AccurateRip returned [E65B9101] (AR v2)
Track 6 cannot be verified as accurate (confidence 3) [FF125E6B], AccurateRip returned [F836365A] (AR v2)
Track 7 cannot be verified as accurate (confidence 3) [FF5025B2], AccurateRip returned [C4DAA8AA] (AR v2)
Track 8 cannot be verified as accurate (confidence 3) [827730FD], AccurateRip returned [C4381F59] (AR v2)
Track 9 cannot be verified as accurate (confidence 3) [1CC2B227], AccurateRip returned [9B93AD8F] (AR v2)
Track 10 cannot be verified as accurate (confidence 3) [9EEA54AC], AccurateRip returned [17B2BF3B] (AR v2)
Track 11 cannot be verified as accurate (confidence 3) [9235DB9C], AccurateRip returned [C7DD08CB] (AR v2)
Track 12 cannot be verified as accurate (confidence 3) [5F4F91F5], AccurateRip returned [22F03FBA] (AR v2)
No tracks could be verified as accurate
You may have a different pressing from the one(s) in the database
End of status report
==== Log checksum 525A088B40C0BE58A38F1182B26BF18888F2C42D5CB65775B61F8C862EC795FB ====

Лог создания рипа: CD2

Exact Audio Copy V1.0 beta 3 from 29. August 2011
EAC extraction logfile from 14. October 2013, 18:30
Collegium Vocale Gent, La Petite Bande, Sigiswald Kuijken / C.P.E. Bach - The Last Suffering of the Saviour, Wq233 - CD2
Used drive : HL-DT-STDVDRRW GWA-4164B Adapter: 5 ID: 0
Read mode : Secure
Utilize accurate stream : Yes
Defeat audio cache : Yes
Make use of C2 pointers : No
Read offset correction : 102
Overread into Lead-In and Lead-Out : No
Fill up missing offset samples with silence : Yes
Delete leading and trailing silent blocks : No
Null samples used in CRC calculations : Yes
Used interface : Native Win32 interface for Win NT & 2000
Used output format : User Defined Encoder
Selected bitrate : 896 kBit/s
Quality : High
Add ID3 tag : No
Command line compressor : C:\Program Files\Exact Audio Copy\FLAC\FLAC.EXE
Additional command line options : -V -8 %source%
TOC of the extracted CD
Track | Start | Length | Start sector | End sector
---------------------------------------------------------
1 | 0:00.33 | 4:02.22 | 33 | 18204
2 | 4:02.55 | 13:47.68 | 18205 | 80297
3 | 17:50.48 | 0:43.52 | 80298 | 83574
4 | 18:34.25 | 6:42.63 | 83575 | 113787
5 | 25:17.13 | 6:00.25 | 113788 | 140812
6 | 31:17.38 | 1:55.50 | 140813 | 149487
7 | 33:13.13 | 1:33.60 | 149488 | 156522
8 | 34:46.73 | 3:25.17 | 156523 | 171914
9 | 38:12.15 | 0:21.55 | 171915 | 173544
10 | 38:33.70 | 1:46.43 | 173545 | 181537
11 | 40:20.38 | 1:37.55 | 181538 | 188867
12 | 41:58.18 | 1:41.45 | 188868 | 196487
13 | 43:39.63 | 4:12.37 | 196488 | 215424
14 | 47:52.25 | 11:30.20 | 215425 | 267194
Range status and errors
Selected range
Filename D:\temp\Music\C.P.E. Bach - The Last Suffering of the Saviour\C.P.E. Bach - The Last Suffering of the Saviour - CD2.wav
Peak level 85.0 %
Extraction speed 2.7 X
Range quality 100.0 %
Test CRC EE3ADD85
Copy CRC EE3ADD85
Copy OK
No errors occurred
AccurateRip summary
Track 1 cannot be verified as accurate (confidence 4) [CEA1D4F3], AccurateRip returned [82B07602] (AR v2)
Track 2 cannot be verified as accurate (confidence 4) [B4F0DAD5], AccurateRip returned [87D3BB33] (AR v2)
Track 3 cannot be verified as accurate (confidence 4) [F300FC98], AccurateRip returned [AD363AD3] (AR v2)
Track 4 cannot be verified as accurate (confidence 4) [A5EE1524], AccurateRip returned [87C641AA] (AR v2)
Track 5 cannot be verified as accurate (confidence 4) [F06D9562], AccurateRip returned [15C46166] (AR v2)
Track 6 cannot be verified as accurate (confidence 4) [8335B2E3], AccurateRip returned [8863031E] (AR v2)
Track 7 cannot be verified as accurate (confidence 4) [276F2A54], AccurateRip returned [E701DE46] (AR v2)
Track 8 cannot be verified as accurate (confidence 4) [74B13BEC], AccurateRip returned [8AB0046C] (AR v2)
Track 9 cannot be verified as accurate (confidence 4) [075A934D], AccurateRip returned [ED79D3B1] (AR v2)
Track 10 cannot be verified as accurate (confidence 4) [33F0F226], AccurateRip returned [8AC17426] (AR v2)
Track 11 cannot be verified as accurate (confidence 4) [0F6DC4A8], AccurateRip returned [EB6CD326] (AR v2)
Track 12 cannot be verified as accurate (confidence 4) [717D0E09], AccurateRip returned [AFD915E3] (AR v2)
Track 13 cannot be verified as accurate (confidence 4) [61B6ED50], AccurateRip returned [E667C1E9] (AR v2)
Track 14 cannot be verified as accurate (confidence 4) [3A429FEB], AccurateRip returned [FA5767C0] (AR v2)
No tracks could be verified as accurate
You may have a different pressing from the one(s) in the database
End of status report
==== Log checksum 4F6F835FF2754FD91C99FDFC7E1C7122DCFA4C05DE02C21F285149D6D70CB9B9 ====
[teatrix.ru].t17864.torrent 
Торрент: Зарегистрирован [ 2016-03-17 00:48 ] · 8D34355DA32EBE61D5CF944A6A8047C1EC530DE2

Скачать .torrent

Скачать

39 KB

Статус: проверено
Скачан: 0 раз
Размер: 463 MB
terms.php



Быстрый ответ

Имя:

      
Для отправки сообщений необходимо включить JavaScript
Показать сообщения:    

Текущее время: 03-Дек 20:44

Часовой пояс: UTC + 3


Вы можете начинать темы
Вы можете отвечать на сообщения
Вы не можете редактировать свои сообщения
Вы не можете удалять свои сообщения
Вы не можете голосовать в опросах
Вы не можете прикреплять файлы к сообщениям
Вы можете скачивать файлы