(Contemporary) Joaquin Rodrigo, Conciertos: de Aranjuez-Andaluz-Madrigal (D.Kavanagh,Amadeus & Eden-Stell-Guitar Duos,Mitteldeutsche Kammer-& Internationale Philharmonie,H.Backer) 1999, APE (img+cue) lossless


Статистика раздачи [Обновить пиров]
Размер:  287 MB   |    Зарегистрирован:  8 месяцев 23 дня   |    Скачан:  0 раз

Полного источника не было: Никогда

 
   
 
 
 

[Цитировать]

Spanish Night: Joaquin Rodrigo, Concertos for 1, 2 and 4 Guitars & Orchestra
Жанр: Contemporary, Guitar Concerto
Страна-производитель диска: Germany
Год издания диска: 1999
Издатель (лейбл): hänssler
Номер по каталогу: CD 98.349
Дата записи: 1999
Аудиокодек: APE
Тип рипа: image+.cue
Битрейт аудио: lossless
Продолжительность: 01:19:32
Источник: скачано с avaxhome
Наличие сканов в содержимом раздачи: да
Треклист:
Concierto de Aranjuez
01 - Allegro con spirito 6:15
02 - Adagio 10:16
03 - Allegro gentile 5:18
Concierto Andaluz
04 - Tempo di Bolero 8:05
05 - Adagio-Cadenza 10:43
06 - Allegretto 6:23
Concierto Madrigal
07 - Fanfare 1:58
08 - Madrigal 2:57
09 - Entrada 1:54
10 - Pastorcico tu que vas... 1:43
11 - Girardilla 1:58
12 - Pastoral 1:56
13 - Fandango 2:11
14 - Arietta 6:48
15 - Zapateado-Cadenza 5:20
16 - Caccia a la espagnola 4:49
Исполнители:
Dale Kavanagh (01-03)
Amadeus Guitar Duo (04-16)
Eden-Stell-Guitar-Duo (04-06)
Internationale Philharmonie
Mitteldeutsche Kammerphilharmonie
conductor: Horst-Hans Bäcker

Лог создания рипа

Exact Audio Copy V1.0 beta 3 from 29. August 2011
EAC extraction logfile from 17. April 2013, 22:06
Amadeus Guitar Duo / Spanish Night
Used drive : PIONEER BD-RW BDR-206 Adapter: 0 ID: 2
Read mode : Secure
Utilize accurate stream : Yes
Defeat audio cache : Yes
Make use of C2 pointers : No
Read offset correction : 667
Overread into Lead-In and Lead-Out : No
Fill up missing offset samples with silence : Yes
Delete leading and trailing silent blocks : No
Null samples used in CRC calculations : Yes
Used interface : Native Win32 interface for Win NT & 2000
Used output format : User Defined Encoder
Selected bitrate : 1024 kBit/s
Quality : High
Add ID3 tag : Yes
Command line compressor : C:\Program Files\FLAC\flac.exe
Additional command line options : -5 -T "Artist=%artist%" -T "Title=%title%" -T "Album=%albumtitle%" -T "Date=%year%" -T "Tracknumber=%tracknr%" -T "Genre=%genre%" %source% -o %dest%
TOC of the extracted CD
Track | Start | Length | Start sector | End sector
---------------------------------------------------------
1 | 0:00.00 | 6:14.57 | 0 | 28106
2 | 6:14.57 | 10:15.38 | 28107 | 74269
3 | 16:30.20 | 5:18.05 | 74270 | 98124
4 | 21:48.25 | 8:05.32 | 98125 | 134531
5 | 29:53.57 | 10:42.38 | 134532 | 182719
6 | 40:36.20 | 6:23.05 | 182720 | 211449
7 | 46:59.25 | 1:58.32 | 211450 | 220331
8 | 48:57.57 | 2:56.50 | 220332 | 233581
9 | 51:54.32 | 1:53.50 | 233582 | 242106
10 | 53:48.07 | 1:43.13 | 242107 | 249844
11 | 55:31.20 | 1:57.55 | 249845 | 258674
12 | 57:29.00 | 1:55.45 | 258675 | 267344
13 | 59:24.45 | 2:11.00 | 267345 | 277169
14 | 61:35.45 | 6:47.72 | 277170 | 307766
15 | 68:23.42 | 5:20.15 | 307767 | 331781
16 | 73:43.57 | 4:48.58 | 331782 | 353439
Range status and errors
Selected range
Copy aborted
End of status report
==== Log checksum AB722E4AC7B10E19C2BFB475BBEB3E8EAC6988F5AFABB70F5BBF1A6E8A9E4A55 ====
------------------------------------------------------------
Exact Audio Copy V1.0 beta 3 from 29. August 2011
EAC extraction logfile from 17. April 2013, 22:16
Amadeus Guitar Duo / Spanish Night
Used drive : PIONEER BD-RW BDR-206 Adapter: 0 ID: 2
Read mode : Secure
Utilize accurate stream : Yes
Defeat audio cache : Yes
Make use of C2 pointers : No
Read offset correction : 667
Overread into Lead-In and Lead-Out : No
Fill up missing offset samples with silence : Yes
Delete leading and trailing silent blocks : No
Null samples used in CRC calculations : Yes
Used interface : Native Win32 interface for Win NT & 2000
Used output format : User Defined Encoder
Selected bitrate : 1024 kBit/s
Quality : High
Add ID3 tag : Yes
Command line compressor : C:\Program Files\FLAC\flac.exe
Additional command line options : -5 -T "Artist=%artist%" -T "Title=%title%" -T "Album=%albumtitle%" -T "Date=%year%" -T "Tracknumber=%tracknr%" -T "Genre=%genre%" %source% -o %dest%
TOC of the extracted CD
Track | Start | Length | Start sector | End sector
---------------------------------------------------------
1 | 0:00.00 | 6:14.57 | 0 | 28106
2 | 6:14.57 | 10:15.38 | 28107 | 74269
3 | 16:30.20 | 5:18.05 | 74270 | 98124
4 | 21:48.25 | 8:05.32 | 98125 | 134531
5 | 29:53.57 | 10:42.38 | 134532 | 182719
6 | 40:36.20 | 6:23.05 | 182720 | 211449
7 | 46:59.25 | 1:58.32 | 211450 | 220331
8 | 48:57.57 | 2:56.50 | 220332 | 233581
9 | 51:54.32 | 1:53.50 | 233582 | 242106
10 | 53:48.07 | 1:43.13 | 242107 | 249844
11 | 55:31.20 | 1:57.55 | 249845 | 258674
12 | 57:29.00 | 1:55.45 | 258675 | 267344
13 | 59:24.45 | 2:11.00 | 267345 | 277169
14 | 61:35.45 | 6:47.72 | 277170 | 307766
15 | 68:23.42 | 5:20.15 | 307767 | 331781
16 | 73:43.57 | 4:48.58 | 331782 | 353439
Range status and errors
Selected range
Filename F:\=== VINYL RIPS ===\=== EAC===\X FRESH RIP\Amadeus Guitar Duo - Spanish Night.wav
Peak level 99.9 %
Extraction speed 8.3 X
Range quality 100.0 %
Copy CRC 4E43B827
Copy OK
No errors occurred
AccurateRip summary
Track 1 cannot be verified as accurate (confidence 3) [BFBDAA18], AccurateRip returned [BC47C627] (AR v2)
Track 2 cannot be verified as accurate (confidence 3) [528244C1], AccurateRip returned [051DF515] (AR v2)
Track 3 cannot be verified as accurate (confidence 3) [00CE1AAD], AccurateRip returned [5614EA0C] (AR v2)
Track 4 cannot be verified as accurate (confidence 3) [138598B0], AccurateRip returned [9139787B] (AR v2)
Track 5 cannot be verified as accurate (confidence 3) [ECA08848], AccurateRip returned [FD2CFA98] (AR v2)
Track 6 cannot be verified as accurate (confidence 3) [709E392B], AccurateRip returned [A2DD5071] (AR v2)
Track 7 cannot be verified as accurate (confidence 3) [2DA8A6E5], AccurateRip returned [9F79C5F2] (AR v2)
Track 8 cannot be verified as accurate (confidence 3) [0EE70F19], AccurateRip returned [3EC24157] (AR v2)
Track 9 cannot be verified as accurate (confidence 3) [67975C42], AccurateRip returned [7817AD69] (AR v2)
Track 10 cannot be verified as accurate (confidence 3) [14987928], AccurateRip returned [7DB15FA5] (AR v2)
Track 11 cannot be verified as accurate (confidence 3) [56A26279], AccurateRip returned [33AD3DE4] (AR v2)
Track 12 cannot be verified as accurate (confidence 3) [90809307], AccurateRip returned [DA92A58E] (AR v2)
Track 13 cannot be verified as accurate (confidence 3) [77E77B0F], AccurateRip returned [85E8BF98] (AR v2)
Track 14 cannot be verified as accurate (confidence 3) [E54FEA2B], AccurateRip returned [55A77537] (AR v2)
Track 15 cannot be verified as accurate (confidence 3) [8FC3E2B8], AccurateRip returned [264ABCF4] (AR v2)
Track 16 cannot be verified as accurate (confidence 3) [7C4844DE], AccurateRip returned [6333CD22] (AR v2)
No tracks could be verified as accurate
You may have a different pressing from the one(s) in the database
End of status report
---- CUETools DB Plugin V2.1.3
[CTDB TOCID: fDl0rqZG9l8orjQuGUQR1AM98sc-] disk not present in database, Submit result: fDl0rqZG9l8orjQuGUQR1AM98sc- has been uploaded
==== Log checksum D20DE828BAEDAF94462F7EEFE5AEDA52C2BA82668EF888F65ECD5D137EA6981F ====

Лог проверки качества

AUDIOCHECKER v2.0 beta (build 457) - by Dester - opdester@freemail.hu
~~~~~~~~~~~~~~~~~~~~~~~~~~~~~~~~~~
-=== DO NOT EDIT THIS FILE! ===-
Path: ...\Spanish Night {1999}
1 -=- Amadeus Guitar Duo - Spanish Night.wav -=- CDDA (94%)
246086372
[teatrix.ru].t17865.torrent 
Торрент: Зарегистрирован [ 2016-03-17 00:48 ] · 0BD05E058B4E254C4F83F352B7C07F8881F06F5A

Скачать .torrent

Скачать

12 KB

Статус: проверено
Скачан: 0 раз
Размер: 287 MB
terms.php



Быстрый ответ

Имя:

      
Для отправки сообщений необходимо включить JavaScript
Показать сообщения:    

Текущее время: 09-Дек 01:07

Часовой пояс: UTC + 3


Вы можете начинать темы
Вы можете отвечать на сообщения
Вы не можете редактировать свои сообщения
Вы не можете удалять свои сообщения
Вы не можете голосовать в опросах
Вы не можете прикреплять файлы к сообщениям
Вы можете скачивать файлы