(Contemporary) Dale Kavanagh, Gheorghe Zamfir, Amadeus Guitar Duo, Statsphilharmonie Arad, Horst-Hans Backer - Spanish Night II (Garcia Zamfir Rodrigo Backer) - 2003, APE (image+.cue) lossless


Статистика раздачи [Обновить пиров]
Размер:  315 MB   |    Зарегистрирован:  8 месяцев 19 дней   |    Скачан:  0 раз

Полного источника не было: Никогда

 
   
 
 
 

[Цитировать]

Spanish Night II: Concertos for Panpipes, Guitars & Orchestra
Жанр: Contemporary
Страна-производитель диска: Germany
Год издания диска: 2003
Издатель (лейбл): hänssler
Номер по каталогу: CD 98.441
Дата записи: 2003
Аудиокодек: APE
Тип рипа: image+.cue
Битрейт аудио: lossless
Продолжительность: 01:18:48
Источник: скачано с avaxhome
Наличие сканов в содержимом раздачи: да
Треклист:
Gerald Garcia - Lorca Concerto
01 Anda 5:49
02 Nana 10:45
03 Los Reyes 2:56
Gheorghe Zamfir - Concerto de Barcelona
04 Moderato 7:31
05 Andante dolce 11:39
06 Presto 2:43
Joaquin Rodrigo - Fantasie para un Gentilhombre
07 Adagietto 4:50
08 Adagio 4:53
09 Allegretto 5:16
10 Allegro con brio 2:06
11 Allegro ma non troppo 5:03
12 Horst-Hans Bäcker - Rhapsodia Mallorquina 15:18
Исполнители:
Dale Kavanagh, guitar (07-11)
Amadeus Guitar Duo (01-06)
Gheorghe Zamfir, panpipes (04-06)
Statsphilharmonie Arad - Horst-Hans Bäcker

Лог создания рипа

Exact Audio Copy V1.0 beta 3 from 29. August 2011
EAC extraction logfile from 18. April 2013, 15:12
Amadeus Guitar Duo, Gheorge Zamfir & Dale Havanagh / Spanish Night II
Used drive : PIONEER BD-RW BDR-206 Adapter: 0 ID: 2
Read mode : Secure
Utilize accurate stream : Yes
Defeat audio cache : Yes
Make use of C2 pointers : No
Read offset correction : 667
Overread into Lead-In and Lead-Out : No
Fill up missing offset samples with silence : Yes
Delete leading and trailing silent blocks : No
Null samples used in CRC calculations : Yes
Used interface : Native Win32 interface for Win NT & 2000
Used output format : User Defined Encoder
Selected bitrate : 1024 kBit/s
Quality : High
Add ID3 tag : Yes
Command line compressor : C:\Program Files\FLAC\flac.exe
Additional command line options : -5 -T "Artist=%artist%" -T "Title=%title%" -T "Album=%albumtitle%" -T "Date=%year%" -T "Tracknumber=%tracknr%" -T "Genre=%genre%" %source% -o %dest%
TOC of the extracted CD
Track | Start | Length | Start sector | End sector
---------------------------------------------------------
1 | 0:00.00 | 5:48.39 | 0 | 26138
2 | 5:48.39 | 10:44.56 | 26139 | 74494
3 | 16:33.20 | 2:55.49 | 74495 | 87668
4 | 19:28.69 | 7:31.00 | 87669 | 121493
5 | 26:59.69 | 11:38.61 | 121494 | 173904
6 | 38:38.55 | 2:43.14 | 173905 | 186143
7 | 41:21.69 | 4:50.18 | 186144 | 207911
8 | 46:12.12 | 4:53.33 | 207912 | 229919
9 | 51:05.45 | 5:16.02 | 229920 | 253621
10 | 56:21.47 | 2:05.58 | 253622 | 263054
11 | 58:27.30 | 5:02.40 | 263055 | 285744
12 | 63:29.70 | 15:18.15 | 285745 | 354609
Range status and errors
Selected range
Filename F:\=== VINYL RIPS ===\=== EAC===\X FRESH RIP\Amadeus Guitar Duo, Gheorge Zamfir & Dale Havanagh - Spanish Night II.wav
Peak level 99.9 %
Extraction speed 2.1 X
Range quality 100.0 %
Copy CRC 78F39250
Copy OK
No errors occurred
AccurateRip summary
Track 1 not present in database
Track 2 accurately ripped (confidence 2) [C9985FE2] (AR v1)
Track 3 accurately ripped (confidence 2) [D8D05BB3] (AR v1)
Track 4 accurately ripped (confidence 2) [044A3E08] (AR v1)
Track 5 accurately ripped (confidence 2) [F37D4B7B] (AR v1)
Track 6 accurately ripped (confidence 2) [8CB00884] (AR v1)
Track 7 accurately ripped (confidence 2) [640F3EB8] (AR v1)
Track 8 accurately ripped (confidence 2) [6A593116] (AR v1)
Track 9 accurately ripped (confidence 2) [DCA7DE9B] (AR v1)
Track 10 accurately ripped (confidence 2) [7FA1DD6F] (AR v1)
Track 11 accurately ripped (confidence 2) [ED73F168] (AR v1)
Track 12 not present in database
10 Track(s) akkurat gelesen
2 Track(s) nicht in der AccurateRip Datenbank vorhanden
Some tracks could not be verified as accurate
End of status report
---- CUETools DB Plugin V2.1.3
[CTDB TOCID: ccz96_AmHiAa1wa_WM__6nmSKNQ-] disk not present in database, Submit result: ccz96_AmHiAa1wa_WM__6nmSKNQ- has been uploaded
==== Log checksum 412D183BE21327DBB0CDE757A862A7519366615AC950D6DE2BED15F3365E8F11 ====

Лог проверки качества

AUDIOCHECKER v2.0 beta (build 457) - by Dester - opdester@freemail.hu
~~~~~~~~~~~~~~~~~~~~~~~~~~~~~~~~~~
-=== DO NOT EDIT THIS FILE! ===-
Path: ...\Amadeus Guitar Duo, Gheorge Zamfir & Dale Havanagh - Spanish Night II {2003}
1 -=- Amadeus Guitar Duo, Gheorge Zamfir & Dale Havanagh - Spanish Night II.wav -=- CDDA (100%)
226307236
[teatrix.ru].t17866.torrent 
Торрент: Зарегистрирован [ 2016-03-17 00:48 ] · 8397007C2D4DB13FFDB933D8124B19A32E2C7CF9

Скачать .torrent

Скачать

13 KB

Статус: проверено
Скачан: 0 раз
Размер: 315 MB
terms.php



Быстрый ответ

Имя:

      
Для отправки сообщений необходимо включить JavaScript
Показать сообщения:    

Текущее время: 05-Дек 01:16

Часовой пояс: UTC + 3


Вы можете начинать темы
Вы можете отвечать на сообщения
Вы не можете редактировать свои сообщения
Вы не можете удалять свои сообщения
Вы не можете голосовать в опросах
Вы не можете прикреплять файлы к сообщениям
Вы можете скачивать файлы