(Orchestral, Vocal) Блох - Зима-Весна, Осенние поэмы, В ночи, Два Псалма 114-137, 22й Псалом / Ernest Bloch - Hiver-Printemps, Poemes d'Automne, In the Night, Deux Psaumes 114-137, Psaume 22 (Luxembourg PO, Shallon) - 2008, FLAC (tracks) lossless


 

[Цитировать]

Ernest Bloch - Hiver-Printemps, Poemes d'Automne, In the Night, Deux Psaumes 114-137, Psaume 22
Жанр: Orchestral, Vocal
Страна-производитель диска: France
Год издания диска: 2008
Издатель (лейбл): Timpani
Номер по каталогу: 1C1149
Дата записи: 1199
Аудиокодек: FLAC
Тип рипа: tracks
Битрейт аудио: lossless
Продолжительность: 63.43
Источник: скачано с
Наличие сканов в содержимом раздачи: да
Треклист:
Ernest Bloch (1880-1959)
Hiver-Printemps, poemes symphoniques (1905)
01 I. Hiver
02 II. Printemps
Poèmes d'Automne, pour mezzo-soprano et orchestre (1906)
03 1. La Vagabonde
04 2. L'Abri
05 3. Le Declin
06 4. Invocation
07 In the Night, love poem pour orchestre (1922)
Deux Psaumes, pour soprano et orchestre (1912-14)
08 Prelude
09 I. Psaume 114
10 II. Psaume 137
11 Psaume 22, pour baritone et orchestre (1913-14)
Исполнители:
Brigitte Balleys, mezzo-soprano (3-6)
Mireille Delunsch, soprano (9-10)
Vincent Le Texier, bariton (11)
Orchestre Philharmonique du Luxembourg
David Shallon, direction
rec Luxembourg, July-September 1999

Лог создания рипа

Exact Audio Copy V1.0 beta 3 from 29. August 2011
EAC extraction logfile from 27. February 2012, 21:35
Orchestre Philharmonique du Luxembourg - David Shallon / Ernest Bloch - Works For Voice & Orchestra
Used drive : Optiarc DVD RW AD-7170A Adapter: 3 ID: 0
Read mode : Secure
Utilize accurate stream : Yes
Defeat audio cache : Yes
Make use of C2 pointers : No
Read offset correction : 48
Overread into Lead-In and Lead-Out : No
Fill up missing offset samples with silence : Yes
Delete leading and trailing silent blocks : No
Null samples used in CRC calculations : Yes
Used interface : Native Win32 interface for Win NT & 2000
Gap handling : Appended to previous track
Used output format : User Defined Encoder
Selected bitrate : 1024 kBit/s
Quality : High
Add ID3 tag : No
Command line compressor : C:\Program Files\Exact Audio Copy\Flac\flac.exe
Additional command line options : -8 -V -T "ARTIST=%artist%" -T "TITLE=%title%" -T "ALBUM=%albumtitle%" -T "DATE=%year%" -T "TRACKNUMBER=%tracknr%" -T "GENRE=%genre%" -T "PERFORMER=%albuminterpret%" -T "COMPOSER=%composer%" %haslyrics%--tag-from-file=LYRICS="%lyricsfile%"%haslyrics% -T "ALBUMARTIST=%albumartist%" -T "ALBUM ARTIST=%albumartist%" -T "DISCNUMBER=%cdnumber%" -T "TOTALDISCS=%totalcds%" -T "TOTALTRACKS=%numtracks%" -T "COMMENT=%comment%" %source% -o %dest%
TOC of the extracted CD
Track | Start | Length | Start sector | End sector
---------------------------------------------------------
1 | 0:00.32 | 7:05.43 | 32 | 31949
2 | 7:06.00 | 7:32.65 | 31950 | 65914
3 | 14:38.65 | 4:03.60 | 65915 | 84199
4 | 18:42.50 | 7:52.15 | 84200 | 119614
5 | 26:34.65 | 5:05.10 | 119615 | 142499
6 | 31:40.00 | 5:36.30 | 142500 | 167729
7 | 37:16.30 | 5:24.52 | 167730 | 192081
8 | 42:41.07 | 3:21.58 | 192082 | 207214
9 | 46:02.65 | 3:41.30 | 207215 | 223819
10 | 49:44.20 | 6:05.45 | 223820 | 251239
11 | 55:49.65 | 7:55.47 | 251240 | 286911
Track 1
Filename D:\new rips\01 Track01.wav
Pre-gap length 0:00:02.42
Peak level 100.0 %
Extraction speed 3.0 X
Track quality 99.9 %
Test CRC FBA3A299
Copy CRC FBA3A299
Track not present in AccurateRip database
Copy OK
Track 2
Filename D:\new rips\02 Track02.wav
Pre-gap length 0:00:01.70
Peak level 97.8 %
Extraction speed 4.5 X
Track quality 100.0 %
Test CRC 61C646E1
Copy CRC 61C646E1
Cannot be verified as accurate (confidence 2) [D2A93F2D], AccurateRip returned [55D4E0EA] (AR v2)
Copy OK
Track 3
Filename D:\new rips\03 Track03.wav
Pre-gap length 0:00:06.06
Peak level 91.1 %
Extraction speed 4.9 X
Track quality 100.0 %
Test CRC 9B742406
Copy CRC 9B742406
Accurately ripped (confidence 2) [203923A8] (AR v2)
Copy OK
Track 4
Filename D:\new rips\04 Track04.wav
Pre-gap length 0:00:03.77
Peak level 100.0 %
Extraction speed 5.6 X
Track quality 100.0 %
Test CRC 4C5C7822
Copy CRC 4C5C7822
Accurately ripped (confidence 2) [530DFD24] (AR v2)
Copy OK
Track 5
Filename D:\new rips\05 Track05.wav
Pre-gap length 0:00:04.66
Peak level 100.0 %
Extraction speed 5.0 X
Track quality 99.9 %
Test CRC 99EB6678
Copy CRC 99EB6678
Accurately ripped (confidence 2) [00751D1D] (AR v2)
Copy OK
Track 6
Filename D:\new rips\06 Track06.wav
Pre-gap length 0:00:03.97
Peak level 100.0 %
Extraction speed 6.3 X
Track quality 100.0 %
Test CRC 5C0334B2
Copy CRC 5C0334B2
Accurately ripped (confidence 2) [13822B10] (AR v2)
Copy OK
Track 7
Filename D:\new rips\07 Track07.wav
Pre-gap length 0:00:08.13
Peak level 100.0 %
Extraction speed 5.5 X
Track quality 99.9 %
Test CRC A97D9634
Copy CRC A97D9634
Accurately ripped (confidence 2) [4022E200] (AR v2)
Copy OK
Track 8
Filename D:\new rips\08 Track08.wav
Pre-gap length 0:00:07.42
Peak level 94.9 %
Extraction speed 6.3 X
Track quality 100.0 %
Test CRC 39260A48
Copy CRC 39260A48
Accurately ripped (confidence 2) [EDED6C38] (AR v2)
Copy OK
Track 9
Filename D:\new rips\09 Track09.wav
Pre-gap length 0:00:01.60
Peak level 100.0 %
Extraction speed 5.3 X
Track quality 99.9 %
Test CRC 7E28AFFB
Copy CRC 7E28AFFB
Accurately ripped (confidence 2) [2EB47D24] (AR v2)
Copy OK
Track 10
Filename D:\new rips\10 Track10.wav
Pre-gap length 0:00:03.80
Peak level 100.0 %
Extraction speed 7.2 X
Track quality 100.0 %
Test CRC 72699DB5
Copy CRC 72699DB5
Accurately ripped (confidence 2) [D7F19DB0] (AR v2)
Copy OK
Track 11
Filename D:\new rips\11 Track11.wav
Pre-gap length 0:00:02.50
Peak level 100.0 %
Extraction speed 5.0 X
Track quality 100.0 %
Test CRC 3F55C8C5
Copy CRC 3F55C8C5
Accurately ripped (confidence 2) [2520A5B0] (AR v2)
Copy OK
9 track(s) accurately ripped
1 track(s) could not be verified as accurate
1 track(s) not present in the AccurateRip database
Some tracks could not be verified as accurate
No errors occurred
End of status report
==== Log checksum D05DED09DC54831EA9B7C300FA41F270D8D58832EDE10D3B95E17E6EC7CEE629 ====
------------------------------------------------------------
Exact Audio Copy V1.0 beta 3 from 29. August 2011
EAC extraction logfile from 27. February 2012, 21:35
Orchestre Philharmonique du Luxembourg - David Shallon / Ernest Bloch - Works For Voice & Orchestra
Used drive : Optiarc DVD RW AD-7170A Adapter: 3 ID: 0
Read mode : Secure
Utilize accurate stream : Yes
Defeat audio cache : Yes
Make use of C2 pointers : No
Read offset correction : 48
Overread into Lead-In and Lead-Out : No
Fill up missing offset samples with silence : Yes
Delete leading and trailing silent blocks : No
Null samples used in CRC calculations : Yes
Used interface : Native Win32 interface for Win NT & 2000
Gap handling : Appended to previous track
Used output format : User Defined Encoder
Selected bitrate : 1024 kBit/s
Quality : High
Add ID3 tag : No
Command line compressor : C:\Program Files\Exact Audio Copy\Flac\flac.exe
Additional command line options : -8 -V -T "ARTIST=%artist%" -T "TITLE=%title%" -T "ALBUM=%albumtitle%" -T "DATE=%year%" -T "TRACKNUMBER=%tracknr%" -T "GENRE=%genre%" -T "PERFORMER=%albuminterpret%" -T "COMPOSER=%composer%" %haslyrics%--tag-from-file=LYRICS="%lyricsfile%"%haslyrics% -T "ALBUMARTIST=%albumartist%" -T "ALBUM ARTIST=%albumartist%" -T "DISCNUMBER=%cdnumber%" -T "TOTALDISCS=%totalcds%" -T "TOTALTRACKS=%numtracks%" -T "COMMENT=%comment%" %source% -o %dest%
TOC of the extracted CD
Track | Start | Length | Start sector | End sector
---------------------------------------------------------
1 | 0:00.32 | 7:05.43 | 32 | 31949
2 | 7:06.00 | 7:32.65 | 31950 | 65914
3 | 14:38.65 | 4:03.60 | 65915 | 84199
4 | 18:42.50 | 7:52.15 | 84200 | 119614
5 | 26:34.65 | 5:05.10 | 119615 | 142499
6 | 31:40.00 | 5:36.30 | 142500 | 167729
7 | 37:16.30 | 5:24.52 | 167730 | 192081
8 | 42:41.07 | 3:21.58 | 192082 | 207214
9 | 46:02.65 | 3:41.30 | 207215 | 223819
10 | 49:44.20 | 6:05.45 | 223820 | 251239
11 | 55:49.65 | 7:55.47 | 251240 | 286911
Track 1
Filename D:\new rips\01 Track01.wav
Pre-gap length 0:00:02.42
Peak level 100.0 %
Extraction speed 3.0 X
Track quality 99.9 %
Test CRC FBA3A299
Copy CRC FBA3A299
Track not present in AccurateRip database
Copy OK
Track 2
Filename D:\new rips\02 Track02.wav
Pre-gap length 0:00:01.70
Peak level 97.8 %
Extraction speed 4.5 X
Track quality 100.0 %
Test CRC 61C646E1
Copy CRC 61C646E1
Cannot be verified as accurate (confidence 2) [D2A93F2D], AccurateRip returned [55D4E0EA] (AR v2)
Copy OK
Track 3
Filename D:\new rips\03 Track03.wav
Pre-gap length 0:00:06.06
Peak level 91.1 %
Extraction speed 4.9 X
Track quality 100.0 %
Test CRC 9B742406
Copy CRC 9B742406
Accurately ripped (confidence 2) [203923A8] (AR v2)
Copy OK
Track 4
Filename D:\new rips\04 Track04.wav
Pre-gap length 0:00:03.77
Peak level 100.0 %
Extraction speed 5.6 X
Track quality 100.0 %
Test CRC 4C5C7822
Copy CRC 4C5C7822
Accurately ripped (confidence 2) [530DFD24] (AR v2)
Copy OK
Track 5
Filename D:\new rips\05 Track05.wav
Pre-gap length 0:00:04.66
Peak level 100.0 %
Extraction speed 5.0 X
Track quality 99.9 %
Test CRC 99EB6678
Copy CRC 99EB6678
Accurately ripped (confidence 2) [00751D1D] (AR v2)
Copy OK
Track 6
Filename D:\new rips\06 Track06.wav
Pre-gap length 0:00:03.97
Peak level 100.0 %
Extraction speed 6.3 X
Track quality 100.0 %
Test CRC 5C0334B2
Copy CRC 5C0334B2
Accurately ripped (confidence 2) [13822B10] (AR v2)
Copy OK
Track 7
Filename D:\new rips\07 Track07.wav
Pre-gap length 0:00:08.13
Peak level 100.0 %
Extraction speed 5.5 X
Track quality 99.9 %
Test CRC A97D9634
Copy CRC A97D9634
Accurately ripped (confidence 2) [4022E200] (AR v2)
Copy OK
Track 8
Filename D:\new rips\08 Track08.wav
Pre-gap length 0:00:07.42
Peak level 94.9 %
Extraction speed 6.3 X
Track quality 100.0 %
Test CRC 39260A48
Copy CRC 39260A48
Accurately ripped (confidence 2) [EDED6C38] (AR v2)
Copy OK
Track 9
Filename D:\new rips\09 Track09.wav
Pre-gap length 0:00:01.60
Peak level 100.0 %
Extraction speed 5.3 X
Track quality 99.9 %
Test CRC 7E28AFFB
Copy CRC 7E28AFFB
Accurately ripped (confidence 2) [2EB47D24] (AR v2)
Copy OK
Track 10
Filename D:\new rips\10 Track10.wav
Pre-gap length 0:00:03.80
Peak level 100.0 %
Extraction speed 7.2 X
Track quality 100.0 %
Test CRC 72699DB5
Copy CRC 72699DB5
Accurately ripped (confidence 2) [D7F19DB0] (AR v2)
Copy OK
Track 11
Filename D:\new rips\11 Track11.wav
Pre-gap length 0:00:02.50
Peak level 100.0 %
Extraction speed 5.0 X
Track quality 100.0 %
Test CRC 3F55C8C5
Copy CRC 3F55C8C5
Accurately ripped (confidence 2) [2520A5B0] (AR v2)
Copy OK
9 track(s) accurately ripped
1 track(s) could not be verified as accurate
1 track(s) not present in the AccurateRip database
Some tracks could not be verified as accurate
No errors occurred
End of status report
==== Log checksum D05DED09DC54831EA9B7C300FA41F270D8D58832EDE10D3B95E17E6EC7CEE629 ====
Доп. информация: На диске представлены ранние оркестровые и оркестрово-вокальные произведения Эрнеста Блоха, сочинённые им в начале века в Женеве. Три из них - симфонические поэмы "Зима-Весна" (1904-1905), "Осенние поэмы" для меццо-сопрано с оркестром (1906), и примыкающая к ним по стилю любовная поэма "В ночи" (1922) написаны в стилистике французского импрессионизма, в других - "Два Псалма 114-137" для сопрано с оркестром (1912-14) и "22й Псалом" для баритона с оркестром (1913-14) он обращается к своим национальным корням.

О сочинениях

Две симфонические поэмы "Зима" и "Весна" (1905) Блох начал писать в феврале 1904 в Париже, а закончил в марте 1905 вернувшись в Женеву. Изначально они были задуманы как поэмы с партией солирующей скрипки для Эжена Изаи, но тот, как и в случае с 'Ноктюрнами' Дебюсси, результат не одобрил. Блох сделал оркестровую редакцию поэм. Музыка, отмеченная тонкой созерцательностью и терпкостью гармоний французского импрессионизма, передает широкий спектр интимных чувств и фантазий - от печали и одиночества зимы до радости и восхищения весенней природой.
"Осенние поэмы" для меццо-сопрано и оркестра (1906) - песни о любви. Это 4х частный вокальный цикл наполненный французской чувственностью в духе Равеля. Песни написаны на стихи поэтессы Беатрикс Роде, с которой Блох, будучи уже женатым человеком, познакомился в 1906 и сразу же влюбился. К октябрю 1907 года он закончил свои отношения с Роде и вернулся в семью. Как воспоминания остались эти четыре поэмы - "Странница", "Убежище", "Уходящая" и "Мольба", с изысканной и чуть грустной лирикой, как бы предвещающей расставание.
"В ночи, поэма о любви" (1922) была изначально написана как фортепианная пьеса. Это мрачноватый импрессионистский ночной музыкальный пейзаж с лирической страстной темой. Блох оркестровал сочинение в конце того же года.
Чтение Библии оказало глубокое влияние на Блоха. Он писал своему другу - еврейскому кантору: "Я прочитал Библию. Я прочитал о Моисее. Это было откровение. Я найду себя там". В музыкальных "поисках себя" он пришёл к мысли воплотить наследии еврейского народа в музыке - в своём "Еврейском цикле". Хронологически первым сочинением цикла были "Два псалма" для сопрано и оркестра (начаты в 1912, закончены в 1914). Открывает сочинение оркестровая прелюдия, чьи звуки "взывают к величию прошлого". За ней следует "114й Псалом" - величественный и радостный праздник Исхода из Египта. 3й заключительный номер - знаменитый 137й (в масоретской нумерации) Псалом "На реках Вавилонских" - скорбь евреев о потерянной родине и надежда на возмездие захватчикам и угнетателям. В том же году Блох написал ещё одно сочинение на библейский текст - "22й Псалом" для баритона с оркестром (1913-14), известный как источник самых трогательных слов Христа на креста: "Господи, почему Ты оставил меня?" Музыкально всё три Псалма наполнены религиозной страстью, национальным духом, кроме того Блох, как современный композитор добавил красочные эффекты.



Показать сообщения:    

Текущее время: 04-Дек 02:57

Часовой пояс: UTC + 3


Вы не можете начинать темы
Вы не можете отвечать на сообщения
Вы не можете редактировать свои сообщения
Вы не можете удалять свои сообщения
Вы не можете голосовать в опросах
Вы не можете прикреплять файлы к сообщениям
Вы не можете скачивать файлы