(Classical, sacred) Resurrexit et ascendit - Ostern, Christi Himmelfahrt - Gregorian Chants and Organ Music of Charles Tournemire - Schola Gregoriana Monacensis, Johannes Berchmans Goschl, Harald Feller - 2009, FLAC (image+.cue) lossless


Статистика раздачи [Обновить пиров]
Размер:  276 MB   |    Зарегистрирован:  8 месяцев 16 дней   |    Скачан:  0 раз

Полного источника не было: Никогда

 
   
 
 
 

[Цитировать]

Resurrexit et ascendit - Ostern, Christi Himmelfahrt - Gregorian Chants and Organ Music of Charles Tournemire - Schola Gregoriana Monacensis, Johannes Berchmans Göschl, Harald Feller
Жанр: Classical, sacred
Страна-производитель диска: Germany
Год издания диска: 2009
Издатель (лейбл): Ars Musici
Номер по каталогу: 232339
Дата записи: 2000
Аудиокодек: FLAC
Тип рипа: image+.cue
Битрейт аудио: lossless
Продолжительность: 74:19
Источник: собственный рип
Наличие сканов в содержимом раздачи: да
Треклист:
Gregorian Chants and Organ Music of Charles Tournemire (L'Orgue Mystique)
Dominica Resurrectionis (Ostersonntag)
[1] Orgel: Prelude a l'introit
[2] Introitus 'Resurrexi'
[3] Graduale 'Haec Dies'
[4] Alleluia 'Pascha nostrum'
[5] Orgel: Offertoire
[6] Offertorium 'Terra tremuit'
[7] Orgel: Elevation
[8] Antiphon 'Angelus autem Domini'
[9] Orgel: Communion
[10] Communio 'Pascha nostrum'
[11] Antiphon 'Post dies octo'
[12] Orgel: Paraphrase et double choral
[13] Sequenz 'Victimae paschali laudes'
In Ascensione Domini (Christi Himmelfahrt)
[14] Orgel: Prelude a l'introit
[15] Introitus 'Viri Gallilaei'
[16] Alleluia 'Ascendit Deus'
[17] Alleluia: 'Dominus in Sina'
[18] Orgel: Offertoire
[19] Offertorium: 'Ascendit Deus'
[20] Orgel: Elevation
[21] Orgel: Communion
[22] Communio: 'Psallite Domino'
[23] Orgel: Paraphrases sur un choral
[24] Hymnus 'Iesu nostra redemptio'
Исполнители:
Schola Gregoriana Monacensis
Johannes Berchmans Göschl
conductor
Harald Feller organ

Лог создания рипа

Exact Audio Copy V1.0 beta 3 from 29. August 2011
EAC extraction logfile from 5. November 2013, 13:50
Schola Gregoriana Monacensis, Johannes Berchmans Göschl; Harald Feller / Resurrexit et ascendit
Used drive : HL-DT-STDVDRRW GWA-4164B Adapter: 5 ID: 0
Read mode : Secure
Utilize accurate stream : Yes
Defeat audio cache : Yes
Make use of C2 pointers : No
Read offset correction : 102
Overread into Lead-In and Lead-Out : No
Fill up missing offset samples with silence : Yes
Delete leading and trailing silent blocks : No
Null samples used in CRC calculations : Yes
Used interface : Native Win32 interface for Win NT & 2000
Used output format : User Defined Encoder
Selected bitrate : 896 kBit/s
Quality : High
Add ID3 tag : No
Command line compressor : C:\Program Files\Exact Audio Copy\FLAC\FLAC.EXE
Additional command line options : -V -8 %source%
TOC of the extracted CD
Track | Start | Length | Start sector | End sector
---------------------------------------------------------
1 | 0:00.00 | 1:21.21 | 0 | 6095
2 | 1:21.21 | 3:47.22 | 6096 | 23142
3 | 5:08.43 | 4:05.01 | 23143 | 41518
4 | 9:13.44 | 3:01.37 | 41519 | 55130
5 | 12:15.06 | 3:09.55 | 55131 | 69360
6 | 15:24.61 | 3:56.41 | 69361 | 87101
7 | 19:21.27 | 1:46.71 | 87102 | 95122
8 | 21:08.23 | 0:42.41 | 95123 | 98313
9 | 21:50.64 | 3:06.68 | 98314 | 112331
10 | 24:57.57 | 3:06.03 | 112332 | 126284
11 | 28:03.60 | 0:29.32 | 126285 | 128491
12 | 28:33.17 | 9:06.21 | 128492 | 169462
13 | 37:39.38 | 1:48.06 | 169463 | 177568
14 | 39:27.44 | 1:18.32 | 177569 | 183450
15 | 40:46.01 | 2:36.33 | 183451 | 195183
16 | 43:22.34 | 2:00.27 | 195184 | 204210
17 | 45:22.61 | 2:55.44 | 204211 | 217379
18 | 48:18.30 | 4:40.11 | 217380 | 238390
19 | 52:58.41 | 3:37.54 | 238391 | 254719
20 | 56:36.20 | 1:31.47 | 254720 | 261591
21 | 58:07.67 | 3:15.04 | 261592 | 276220
22 | 61:22.71 | 2:25.37 | 276221 | 287132
23 | 63:48.33 | 8:27.54 | 287133 | 325211
24 | 72:16.12 | 2:42.44 | 325212 | 337405
Range status and errors
Selected range
Filename D:\temp\Music\Resurrexit et ascendit\Resurrexit et ascendit.wav
Peak level 94.8 %
Extraction speed 3.1 X
Range quality 100.0 %
Test CRC 184A8DE1
Copy CRC 184A8DE1
Copy OK
No errors occurred
AccurateRip summary
Track 1 not present in database
Track 2 not present in database
Track 3 not present in database
Track 4 not present in database
Track 5 not present in database
Track 6 not present in database
Track 7 not present in database
Track 8 not present in database
Track 9 not present in database
Track 10 not present in database
Track 11 not present in database
Track 12 not present in database
Track 13 not present in database
Track 14 not present in database
Track 15 not present in database
Track 16 not present in database
Track 17 not present in database
Track 18 not present in database
Track 19 not present in database
Track 20 not present in database
Track 21 not present in database
Track 22 not present in database
Track 23 not present in database
Track 24 not present in database
None of the tracks are present in the AccurateRip database
End of status report
==== Log checksum 5E86065B3CF64D7C1E08F8F888EA5B8FA88450170DE6AE30DEE28A490FE53031 ====
[teatrix.ru].t17874.torrent 
Торрент: Зарегистрирован [ 2016-03-17 00:48 ] · 6B9BE65832328F686B152AC99ED82A3F59C00D0E

Скачать .torrent

Скачать

24 KB

Статус: проверено
Скачан: 0 раз
Размер: 276 MB
terms.php



Быстрый ответ

Имя:

      
Для отправки сообщений необходимо включить JavaScript
Показать сообщения:    

Текущее время: 02-Дек 23:11

Часовой пояс: UTC + 3


Вы можете начинать темы
Вы можете отвечать на сообщения
Вы не можете редактировать свои сообщения
Вы не можете удалять свои сообщения
Вы не можете голосовать в опросах
Вы не можете прикреплять файлы к сообщениям
Вы можете скачивать файлы