(Classical / Choral) Cesar Franck - Redemption / Сезар Франк - Искупление (Lambert Wilson, Beatrice Uria-Monzon, Orfeon Donostiarra, Orchestre du Capitole de Toulouse, Michel Plasson, 1993-1994) - 1994, FLAC (image+.cue) lossless


Статистика раздачи [Обновить пиров]
Размер:  327 MB   |    Зарегистрирован:  10 месяцев 3 дня   |    Скачан:  0 раз

Полного источника не было: Никогда

 
   
 
 
 

[Цитировать]

César Franck | Сезар Франк
(1822–1890)



Rédemption | Искупление
poème-symphonie de Edouard Blau


Lambert Wilson récitantBéatrice Uria-Monzon l'archange
Orféon DonostiarraJosé-Antonio Sainz chef des chœurs
Orchestre du Capitole de Toulouse
Michel Plasson direction


Жанр: Classical / Choral
Дата и место записи: Toulouse, Halle-aux-Grains, 21–24.V.1993 & 5.I.1994
Формат записи: DDD, Stereo
Год издания диска: 1994
Издатель (лейбл): EMI
Номер по каталогу: CDC 5 55056 2
Аудиокодек: FLAC
Тип рипа: image+.cue
Битрейт аудио: lossless
Продолжительность: 1:13:45
Наличие сканов в содержимом раздачи: да
Источник: блог OdeonMusic


Tracklist / Треклист
Première partie - 30:36
Introduction - 3:58
  • I. Chœur Terrestre: «Que le jour monte ou s'abaisse» - 5:48
  • «Ah! Malheur aux vaincus» - 1:41
  • II. Récit et chœur des anges: «Mais, je vois s'éclairer» - 4:39
  • III. Chœur, récit et air de l'archange: «Où mènent vos chemins» - 1:20
  • «Les rois dont vous vantez la gloire» - 8:47
  • IV. Chœur général: «Devant la loi nouvelle» - 4:23
    Deuxième partie - 43:09
    V. Morceau symphonique - 13:56
  • VI. Chœur d'hommes: «Où sommes nous?» - 4:23
  • «Toujours le chant moqueur!» - 1:49
  • VII. Chœur des anges: «Et vous, séraphins» - 7:50
  • VIII. Air de l'archange: «Le flot se lève» - 5:41
  • «Prier! — Le pouvons-nous?» - 2:11
  • IX. Chœur général: «Seigneur, Seigneur, oublie» - 7:20

    -

    EAC log / Отчёт EAC

    Exact Audio Copy V1.0 beta 3 from 29. August 2011
    EAC extraction logfile from 25. January 2013, 12:57
    Michel Plasson / César Franck - Rédemption - Plasson
    Used drive : TSSTcorpCDDVDW SH-222BB Adapter: 2 ID: 1
    Read mode : Secure
    Utilize accurate stream : Yes
    Defeat audio cache : Yes
    Make use of C2 pointers : No
    Read offset correction : 6
    Overread into Lead-In and Lead-Out : No
    Fill up missing offset samples with silence : Yes
    Delete leading and trailing silent blocks : No
    Null samples used in CRC calculations : Yes
    Used interface : Native Win32 interface for Win NT & 2000
    Used output format : User Defined Encoder
    Selected bitrate : 1024 kBit/s
    Quality : High
    Add ID3 tag : No
    Command line compressor : C:\Program Files\Exact Audio Copy\Flac\flac.exe
    Additional command line options : -8 -V -T "TITLE=%title%" -T "ARTIST=%artist%" -T "ALBUMARTIST=%albumartist%" -T "ALBUM=%albumtitle%" -T "DATE=%year%" -T "TRACKNUMBER=%tracknr%" -T "TRACKTOTAL=%numtracks%" -T "GENRE=%genre%" -T "COMMENT=%comment%" -T "PERFORMER=%albuminterpret%" -T "COMPOSER=%composer%" %source% -o %dest%
    TOC of the extracted CD
    Track | Start | Length | Start sector | End sector
    ---------------------------------------------------------
    1 | 0:00.33 | 3:57.60 | 33 | 17867
    2 | 3:58.18 | 5:48.00 | 17868 | 43967
    3 | 9:46.18 | 1:41.35 | 43968 | 51577
    4 | 11:27.53 | 4:39.25 | 51578 | 72527
    5 | 16:07.03 | 1:19.60 | 72528 | 78512
    6 | 17:26.63 | 8:46.57 | 78513 | 118019
    7 | 26:13.45 | 4:22.50 | 118020 | 137719
    8 | 30:36.20 | 13:56.33 | 137720 | 200452
    9 | 44:32.53 | 4:22.62 | 200453 | 220164
    10 | 48:55.40 | 1:48.45 | 220165 | 228309
    11 | 50:44.10 | 7:49.48 | 228310 | 263532
    12 | 58:33.58 | 5:40.60 | 263533 | 289092
    13 | 64:14.43 | 2:10.50 | 289093 | 298892
    14 | 66:25.18 | 7:20.15 | 298893 | 331907
    Range status and errors
    Selected range
    Filename G:\Ripped general\[1587] César Franck – Rédemption – Plasson\César Franck - Rédemption - Plasson.wav
    Peak level 100.0 %
    Extraction speed 2.3 X
    Range quality 100.0 %
    Test CRC D08216A1
    Copy CRC D08216A1
    Copy OK
    No errors occurred
    AccurateRip summary
    Track 1 accurately ripped (confidence 2) [31BAC966] (AR v1)
    Track 2 accurately ripped (confidence 2) [2870F6C1] (AR v1)
    Track 3 accurately ripped (confidence 2) [1239E1B6] (AR v1)
    Track 4 accurately ripped (confidence 2) [33C1A794] (AR v1)
    Track 5 accurately ripped (confidence 2) [50F1C777] (AR v1)
    Track 6 accurately ripped (confidence 2) [3CCFEBEB] (AR v1)
    Track 7 accurately ripped (confidence 2) [07719AA9] (AR v1)
    Track 8 accurately ripped (confidence 2) [90D8D8B1] (AR v1)
    Track 9 accurately ripped (confidence 2) [8B34E310] (AR v1)
    Track 10 accurately ripped (confidence 2) [C13A39DD] (AR v1)
    Track 11 accurately ripped (confidence 2) [93D853A8] (AR v1)
    Track 12 accurately ripped (confidence 2) [443386A0] (AR v1)
    Track 13 accurately ripped (confidence 2) [9D567A47] (AR v1)
    Track 14 accurately ripped (confidence 2) [23C0EC01] (AR v1)
    All tracks accurately ripped
    End of status report

    auCDtect Task Manager log / Отчёт auCDtect Task Manager

    -----------------------
    DON'T MODIFY THIS FILE
    -----------------------
    PERFORMER: auCDtect Task Manager, ver. 1.5.1RC3 build 1.5.1.4
    Copyright (c) 2008-2010 y-soft. All rights reserved
    ANALYZER: auCDtect: CD records authenticity detector, version 0.8.2
    Copyright (c) 2004 Oleg Berngardt. All rights reserved.
    Copyright (c) 2004 Alexander Djourik. All rights reserved.
    FILE: Franck. Redemption (Plasson).flac
    Size: 302233388 Hash: 4A25B6910E42B93CFBB16540AEF00F29 Accuracy: -m0
    Conclusion: CDDA 94%
    Signature: B0204928410743A4CC00AEE3757B51E9AFF37BD9

    CUETools log / Отчёт CUETools

    [CUETools log; Date: 25.11.2013 01:18:13; Version: 2.1.4]
    Pregap length 00:00:33.
    [AccurateRip ID: 0023e5c7-0188b513-f311490e] found.
    Track [ CRC | V2 ] Status
    01 [31bac966|91b5b623] (2+5/9) Accurately ripped
    02 [2870f6c1|0b7c57d6] (2+5/9) Accurately ripped
    03 [1239e1b6|a6b21d5c] (2+5/9) Accurately ripped
    04 [33c1a794|6c77056f] (2+5/9) Accurately ripped
    05 [50f1c777|44d2b4df] (2+5/9) Accurately ripped
    06 [3ccfebeb|b8874dba] (2+5/9) Accurately ripped
    07 [07719aa9|298f4ef4] (2+5/9) Accurately ripped
    08 [90d8d8b1|e9263b61] (2+5/9) Accurately ripped
    09 [8b34e310|e03551ce] (2+5/9) Accurately ripped
    10 [c13a39dd|ba3b2d6d] (2+5/9) Accurately ripped
    11 [93d853a8|1f747d1a] (2+5/9) Accurately ripped
    12 [443386a0|1d3a8f66] (2+5/9) Accurately ripped
    13 [9d567a47|e0b0b925] (2+5/9) Accurately ripped
    14 [23c0ec01|9ebf6ef1] (2+5/9) Accurately ripped
    Offsetted by -676:
    01 [26e7a1f0] (0/9) No match (V2 was not tested)
    02 [2bab6e0e] (0/9) No match (V2 was not tested)
    03 [436741a3] (0/9) No match (V2 was not tested)
    04 [a83eeb23] (0/9) No match (V2 was not tested)
    05 [0b9b417f] (0/9) No match (V2 was not tested)
    06 [d22e3096] (0/9) No match (V2 was not tested)
    07 [5e4210d8] (0/9) No match (V2 was not tested)
    08 [22975dfa] (0/9) No match (V2 was not tested)
    09 [8910dc9f] (0/9) No match (V2 was not tested)
    10 [dfab73e4] (0/9) No match (V2 was not tested)
    11 [b49d8dc1] (0/9) No match (V2 was not tested)
    12 [f81346d5] (0/9) No match (V2 was not tested)
    13 [f0b30c44] (0/9) No match (V2 was not tested)
    14 [5f4ac392] (0/9) No match (V2 was not tested)
    Track Peak [ CRC32 ] [W/O NULL] [ LOG ]
    -- 100,0 [D08216A1] [97F915C9] CRC32
    01 46,1 [E2B4434B] [AD762014]
    02 100,0 [FB4044DA] [C02617C0]
    03 15,3 [F8104E50] [E1662BB8]
    04 39,0 [27106634] [CA2EC25D]
    05 41,2 [2BAEFB4A] [31EABB7C]
    06 78,2 [DBC1FABE] [2DE072F9]
    07 100,0 [CFC18960] [28E73B43]
    08 100,0 [B118B20B] [240CD972]
    09 82,4 [99BE4DA6] [9C96502C]
    10 21,6 [29D6C6D6] [D8D3212C]
    11 28,9 [D01A98CF] [BECD0B8B]
    12 67,7 [05F00C24] [901470F4]
    13 26,1 [BD2AA52C] [F1F46CDD]
    14 97,8 [189553F3] [4393727A]

    CUE sheet

    TITLE "César Franck: «Rédemption» (poème-symphonie de Edouard Blau)"
    PERFORMER "Michel Plasson"
    REM GENRE Classical
    REM DISCID F311490E
    REM COMMENT "ExactAudioCopy v1.0b3"
    FILE "Franck. Redemption (Plasson).flac" WAVE
    TRACK 01 AUDIO
    TITLE "Première partie: Introduction"
    PERFORMER "Orchestre du Capitole de Toulouse. Michel Plasson, direction"
    REM DATE 1994
    INDEX 00 00:00:00
    INDEX 01 00:00:33
    TRACK 02 AUDIO
    TITLE "Première partie: I. Chœur Terrestre: «Que le jour monte ou s'abaisse»"
    PERFORMER "Orféon Donostiarra, Orchestre du Capitole de Toulouse. Michel Plasson, direction"
    REM DATE 1994
    INDEX 01 03:58:18
    TRACK 03 AUDIO
    TITLE "Première partie: «Ah! Malheur aux vaincus»"
    PERFORMER "Lambert Wilson (récitant)"
    REM DATE 1994
    INDEX 01 09:46:18
    TRACK 04 AUDIO
    TITLE "Première partie: II. Récit et chœur des anges: «Mais, je vois s'éclairer»"
    PERFORMER "Lambert Wilson (récitant), Orféon Donostiarra, Orchestre du Capitole de Toulouse. Michel Plasson, direction"
    REM DATE 1994
    INDEX 01 11:27:53
    TRACK 05 AUDIO
    TITLE "Première partie: III. Chœur, récit et air de l'archange: «Où mènent vos chemins»"
    PERFORMER "Orféon Donostiarra, Orchestre du Capitole de Toulouse. Michel Plasson, direction"
    REM DATE 1994
    INDEX 01 16:07:03
    TRACK 06 AUDIO
    TITLE "Première partie: «Les rois dont vous vantez la gloire»"
    PERFORMER "Béatrice Uria-Monzon (l'archange), Orféon Donostiarra, Orchestre du Capitole de Toulouse. Michel Plasson, direction"
    REM DATE 1994
    INDEX 01 17:26:63
    TRACK 07 AUDIO
    TITLE "Première partie: IV. Chœur général: «Devant la loi nouvelle»"
    PERFORMER "Orféon Donostiarra, Orchestre du Capitole de Toulouse. Michel Plasson, direction"
    REM DATE 1994
    INDEX 01 26:13:45
    TRACK 08 AUDIO
    TITLE "Deuxième partie: V. Morceau symphonique"
    PERFORMER "Orchestre du Capitole de Toulouse. Michel Plasson, direction"
    REM DATE 1994
    INDEX 00 30:30:20
    INDEX 01 30:36:20
    TRACK 09 AUDIO
    TITLE "Deuxième partie: VI. Chœur d'hommes: «Où sommes nous?»"
    PERFORMER "Orféon Donostiarra, Orchestre du Capitole de Toulouse. Michel Plasson, direction"
    REM DATE 1994
    INDEX 00 44:30:53
    INDEX 01 44:32:53
    TRACK 10 AUDIO
    TITLE "Deuxième partie: «Toujours le chant moqueur!»"
    PERFORMER "Lambert Wilson (récitant)"
    REM DATE 1994
    INDEX 01 48:55:40
    TRACK 11 AUDIO
    TITLE "Deuxième partie: VII. Chœur des anges: «Et vous, séraphins»"
    PERFORMER "Lambert Wilson (récitant), Orféon Donostiarra, Orchestre du Capitole de Toulouse. Michel Plasson, direction"
    REM DATE 1994
    INDEX 01 50:44:10
    TRACK 12 AUDIO
    TITLE "Deuxième partie: VIII. Air de l'archange: «Le flot se lève»"
    PERFORMER "Béatrice Uria-Monzon (l'archange), Orféon Donostiarra, Orchestre du Capitole de Toulouse. Michel Plasson, direction"
    REM DATE 1994
    INDEX 01 58:33:58
    TRACK 13 AUDIO
    TITLE "Deuxième partie: «Prier! — Le pouvons-nous?»"
    PERFORMER "Lambert Wilson (récitant)"
    REM DATE 1994
    INDEX 01 64:14:43
    TRACK 14 AUDIO
    TITLE "Deuxième partie: IX. Chœur général: «Seigneur, Seigneur, oublie»"
    PERFORMER "Orféon Donostiarra, Orchestre du Capitole de Toulouse. Michel Plasson, direction"
    REM DATE 1994
    INDEX 01 66:25:18
    -
    Все мои раздачи / All my releases
    [teatrix.ru].t17883.torrent 
    Торрент: Зарегистрирован [ 2016-03-17 00:48 ] · CFCD5647122C879113858ECEE0BD5847020D659A

    Скачать .torrent

    Скачать

    15 KB

    Статус: проверено
    Скачан: 0 раз
    Размер: 327 MB
    terms.php



  • Быстрый ответ

    Имя:

          
    Для отправки сообщений необходимо включить JavaScript
    Показать сообщения:    

    Текущее время: 20-Янв 14:56

    Часовой пояс: UTC + 3


    Вы можете начинать темы
    Вы можете отвечать на сообщения
    Вы не можете редактировать свои сообщения
    Вы не можете удалять свои сообщения
    Вы не можете голосовать в опросах
    Вы не можете прикреплять файлы к сообщениям
    Вы можете скачивать файлы