(Viola, Concerto) Светлана Степченко - Альт в большом городе (А. Шелыгин)- 2013, FLAC (image+.cue) lossless


Статистика раздачи [Обновить пиров]
Размер:  143 MB   |    Зарегистрирован:  8 месяцев 23 дня   |    Скачан:  0 раз

Полного источника не было: Никогда

 
   
 
 
 

[Цитировать]

Светлана Степченко. Альт в большом городе
Жанр: Viola, Concerto
Страна-производитель диска: Российская федерация
Год издания диска: 2013
Издатель (лейбл): ООО "Артсервис"
Дата записи: 2013
Аудиокодек: FLAC
Тип рипа: image+.cue
Битрейт аудио: lossless
Продолжительность: 30:34
Источник: CD
Наличие сканов в содержимом раздачи: да
Треклист:
1 - 2. А. Шелыгин - Соната для альта и фортепиано "ФЛЭШБЭК" (посвящается С. Степченко).
3 - 5. А. Шелыгин - Концерт для альта, струнного оркестра и литавр.
Исполнители:
Светлана Степченко (альт, 1 - 5), Даниил Копылов (фортепиано, 1, 2), Жуковский симфонический оркестр, дирижёр С. Скрипка (3 - 5).

Лог создания рипа

Exact Audio Copy V1.0 beta 3 from 29. August 2011
EAC extraction logfile from 23. November 2013, 20:20
Svetlana Stepchenko / Viola In the City
Used drive : HL-DT-STDVDRAM_GSA-T20N Adapter: 1 ID: 0
Read mode : Secure
Utilize accurate stream : Yes
Defeat audio cache : Yes
Make use of C2 pointers : No
Read offset correction : 667
Overread into Lead-In and Lead-Out : No
Fill up missing offset samples with silence : Yes
Delete leading and trailing silent blocks : No
Null samples used in CRC calculations : Yes
Used interface : Native Win32 interface for Win NT & 2000
Used output format : User Defined Encoder
Selected bitrate : 768 kBit/s
Quality : High
Add ID3 tag : No
Command line compressor : C:\Program Files\Exact Audio Copy\FLAC\FLAC.EXE
Additional command line options : -6 -V -T "ARTIST=%artist%" -T "TITLE=%title%" -T "ALBUM=%albumtitle%" -T "DATE=%year%" -T "TRACKNUMBER=%tracknr%" -T "GENRE=%genre%" -T "COMMENT=%comment%" -T "BAND=%albuminterpret%" -T "ALBUMARTIST=%albuminterpret%" -T "COMPOSER=%composer%" %haslyrics%--tag-from-file=LYRICS="%lyricsfile%"%haslyrics% -T "DISCNUMBER=%cdnumber%" -T "TOTALDISCS=%totalcds%" -T "TOTALTRACKS=%numtracks%" %hascover%--picture="%coverfile%"%hascover% %source% -o %dest%
TOC of the extracted CD
Track | Start | Length | Start sector | End sector
---------------------------------------------------------
1 | 0:00.00 | 7:13.07 | 0 | 32481
2 | 7:13.07 | 4:51.39 | 32482 | 54345
3 | 12:04.46 | 8:46.33 | 54346 | 93828
4 | 20:51.04 | 5:08.60 | 93829 | 116988
5 | 25:59.64 | 4:34.53 | 116989 | 137591
Range status and errors
Selected range
Filename C:\Work\Svetlana Stepchenko - Viola In the City.wav
Peak level 92.6 %
Extraction speed 2.8 X
Range quality 100.0 %
Test CRC DF58D7AC
Copy CRC DF58D7AC
Copy OK
No errors occurred
AccurateRip summary
Track 1 not present in database
Track 2 not present in database
Track 3 not present in database
Track 4 not present in database
Track 5 not present in database
None of the tracks are present in the AccurateRip database
End of status report
==== Log checksum CCEE44B94EFAFC4E60258B4D08FD6A1569F5EBA81616DD90517F9C460CAF4D53 ====
[teatrix.ru].t17885.torrent 
Торрент: Зарегистрирован [ 2016-03-17 00:48 ] · EC4F619BBF1A5361E0457B79AB2D1D974B067366

Скачать .torrent

Скачать

6 KB

Статус: проверено
Скачан: 0 раз
Размер: 143 MB
terms.php



Быстрый ответ

Имя:

      
Для отправки сообщений необходимо включить JavaScript
Показать сообщения:    

Текущее время: 09-Дек 18:27

Часовой пояс: UTC + 3


Вы можете начинать темы
Вы можете отвечать на сообщения
Вы не можете редактировать свои сообщения
Вы не можете удалять свои сообщения
Вы не можете голосовать в опросах
Вы не можете прикреплять файлы к сообщениям
Вы можете скачивать файлы