(Classical / Vocal) Gustav Mahler - Kindertotenlieder (Kathleen Ferrier, Concertgebouworkest, Otto Klemperer, 1951) | Johannes Brahms - Liebeslieder-Walzer (Seefried, Ferrier, Patzak, Gunter, Curzon, Gal, 1952) - 1992, FLAC (image+.cue) lossless


 

[Цитировать]

Gustav Mahler | Густав Малер
(1860–1911)



Kindertotenlieder | Песни об умерших детях


Kathleen Ferrier contraltoConcertgebouworkestOtto Klemperer conductor


Johannes Brahms | Йоханнес Брамс
(1833–1897)



Liebeslieder-Walzer | Песни любви


Irmgard Seefried sopranoKathleen Ferrier contralto
Julius Patzak tenorHorst Günter bass
Clifford CurzonHans Gál pianos


Жанр: Classical / Vocal
Даты записи: 1951, 1952
Формат записи: ADD, Mono
Год издания диска: 1992
Издатель (лейбл): Decca
Номер по каталогу: 425 995-2
Аудиокодек: FLAC
Тип рипа: image+.cue
Битрейт аудио: lossless
Продолжительность: 49:03
Наличие сканов в содержимом раздачи: да
Источник: блог OdeonMusic

-Tracklist / Треклист
Gustav Mahler
Kindertotenlieder - 22:40
I. «Nun will die Sonn' so hell aufgeh'n» - 4:56
  • II. «Nun seh' ich wohl, warum so dunkle Flammen» - 3:53
  • III. «Wenn dein Mütterlein tritt zur Tür herein» - 4:04
  • IV. «Oft denk' ich, sie sind nur augesgangen» - 3:04
  • V. «In diesem Wetter, in diesem Braus» - 6:42
    Kathleen Ferrier (contralto), Concertgebouworkest. Otto Klemperer, conductor
    Recorded: Concertgebouw, Amsterdam, 12 July 1951

    Johannes Brahms
    Liebeslieder-Walzer, Op. 52 - 23:58
    Nr. 1. Rede, Mädchen, allzu liebes - 1:14
  • Nr. 2. Am Gesteine rauscht die Flut - 0:45
  • Nr. 3. O die Frauen - 1:06
  • Nr. 4. Wie des Abends schöne Röte - 0:51
  • Nr. 5. Die grüne Hopfenranke - 1:39
  • Nr. 6. Ein kleiner, hübscher Vogel - 2:37
  • Nr. 7. Wohl schön bewandt war es - 1:32
  • Nr. 8. Wenn so lind dein Augen mir - 1:37
  • Nr. 9. Am Donaustrande - 2:11
  • Nr. 10. O wie sanft die Quelle - 1:03
  • Nr. 11. Nein, est ist nicht auszukommen - 0:50
  • Nr. 12. Schlosser auf, und mache Schlösser - 0:42
  • Nr. 13. Vögelein, durchrauscht die Luft - 0:44
  • Nr. 14. Sieh, wie ist die Welle klar - 0:58
  • Nr. 15. Nachtigall, sie singt so schön - 1:19
  • Nr. 16. Ein dunkeler Schacht ist Liebe - 1:21
  • Nr. 17. Nicht wandle, mein Licht - 1:55
  • Nr. 18. Es bebet das Gesträuche - 1:32
    Neue Liebeslieder-Walzer, Op. 65
    Nr. 15. Zum Schluß - 2:25
    Irmgard Seefried (soprano), Kathleen Ferrier (contralto), Julius Patzak (tenor), Horst Günter (bass)
    Clifford Curzon, Hans Gál (pianos)
    Recorded: Edinburgh Festival, 2 September 1952
    -

    EAC log / Отчёт EAC

    Exact Audio Copy V1.0 beta 3 from 29. August 2011
    EAC extraction logfile from 10. July 2013, 16:40
    Kathleen Ferrier / Mahler - Kindertotenlieder; Brahms – Liebeslieder-Walzer - Kathleen Ferrier
    Used drive : TSSTcorpCDDVDW SH-222BB Adapter: 2 ID: 1
    Read mode : Secure
    Utilize accurate stream : Yes
    Defeat audio cache : Yes
    Make use of C2 pointers : No
    Read offset correction : 6
    Overread into Lead-In and Lead-Out : No
    Fill up missing offset samples with silence : Yes
    Delete leading and trailing silent blocks : No
    Null samples used in CRC calculations : Yes
    Used interface : Native Win32 interface for Win NT & 2000
    Used output format : User Defined Encoder
    Selected bitrate : 1024 kBit/s
    Quality : High
    Add ID3 tag : No
    Command line compressor : C:\Program Files\Exact Audio Copy\Flac\flac.exe
    Additional command line options : -8 -V -T "TITLE=%title%" -T "ARTIST=%artist%" -T "ALBUMARTIST=%albumartist%" -T "ALBUM=%albumtitle%" -T "DATE=%year%" -T "TRACKNUMBER=%tracknr%" -T "TRACKTOTAL=%numtracks%" -T "GENRE=%genre%" -T "COMMENT=%comment%" -T "PERFORMER=%albuminterpret%" -T "COMPOSER=%composer%" %source% -o %dest%
    TOC of the extracted CD
    Track | Start | Length | Start sector | End sector
    ---------------------------------------------------------
    1 | 0:00.33 | 4:56.25 | 33 | 22257
    2 | 4:56.58 | 3:52.67 | 22258 | 39724
    3 | 8:49.50 | 4:04.25 | 39725 | 58049
    4 | 12:54.00 | 3:04.35 | 58050 | 71884
    5 | 15:58.35 | 6:41.73 | 71885 | 102032
    6 | 22:40.33 | 1:13.70 | 102033 | 107577
    7 | 23:54.28 | 0:44.52 | 107578 | 110929
    8 | 24:39.05 | 1:06.08 | 110930 | 115887
    9 | 25:45.13 | 0:51.30 | 115888 | 119742
    10 | 26:36.43 | 1:38.45 | 119743 | 127137
    11 | 28:15.13 | 2:37.35 | 127138 | 138947
    12 | 30:52.48 | 1:32.05 | 138948 | 145852
    13 | 32:24.53 | 1:37.17 | 145853 | 153144
    14 | 34:01.70 | 2:11.15 | 153145 | 162984
    15 | 36:13.10 | 1:02.60 | 162985 | 167694
    16 | 37:15.70 | 0:50.30 | 167695 | 171474
    17 | 38:06.25 | 0:42.33 | 171475 | 174657
    18 | 38:48.58 | 0:44.00 | 174658 | 177957
    19 | 39:32.58 | 0:58.00 | 177958 | 182307
    20 | 40:30.58 | 1:19.22 | 182308 | 188254
    21 | 41:50.05 | 1:21.28 | 188255 | 194357
    22 | 43:11.33 | 1:55.20 | 194358 | 203002
    23 | 45:06.53 | 1:31.47 | 203003 | 209874
    24 | 46:38.25 | 2:25.33 | 209875 | 220782
    Range status and errors
    Selected range
    Filename G:\Ripped general\[2274] Mahler – Kindertotenlieder; Brahms – Liebeslieder-Walzer – Kathleen Ferrier\Mahler - Kindertotenlieder; Brahms – Liebeslieder-Walzer - Kathleen Ferrier.wav
    Peak level 85.7 %
    Extraction speed 2.3 X
    Range quality 100.0 %
    Test CRC 66E71C1F
    Copy CRC 66E71C1F
    Copy OK
    No errors occurred
    AccurateRip summary
    Track 1 accurately ripped (confidence 7) [5F9A5E89] (AR v1)
    Track 2 accurately ripped (confidence 7) [0063B766] (AR v1)
    Track 3 accurately ripped (confidence 7) [67CE1BDE] (AR v1)
    Track 4 accurately ripped (confidence 7) [DA505172] (AR v1)
    Track 5 accurately ripped (confidence 7) [163D9BB8] (AR v1)
    Track 6 accurately ripped (confidence 7) [6BFD6258] (AR v1)
    Track 7 accurately ripped (confidence 7) [E96D5051] (AR v1)
    Track 8 accurately ripped (confidence 7) [F25BED6B] (AR v1)
    Track 9 accurately ripped (confidence 7) [4260CF97] (AR v1)
    Track 10 accurately ripped (confidence 7) [E6DD11AA] (AR v1)
    Track 11 accurately ripped (confidence 7) [125D1B9A] (AR v1)
    Track 12 accurately ripped (confidence 7) [5BC380FE] (AR v1)
    Track 13 accurately ripped (confidence 7) [F6155A61] (AR v1)
    Track 14 accurately ripped (confidence 7) [BECA28B2] (AR v1)
    Track 15 accurately ripped (confidence 7) [96FFB2A1] (AR v1)
    Track 16 accurately ripped (confidence 7) [08557F65] (AR v1)
    Track 17 accurately ripped (confidence 7) [1D567731] (AR v1)
    Track 18 accurately ripped (confidence 7) [39D24250] (AR v1)
    Track 19 accurately ripped (confidence 7) [39EDB42B] (AR v1)
    Track 20 accurately ripped (confidence 7) [47D16F7B] (AR v1)
    Track 21 accurately ripped (confidence 7) [0A3E69DE] (AR v1)
    Track 22 accurately ripped (confidence 7) [7C46800D] (AR v1)
    Track 23 accurately ripped (confidence 7) [938A8BC7] (AR v1)
    Track 24 accurately ripped (confidence 7) [A6AC512B] (AR v1)
    All tracks accurately ripped
    End of status report

    auCDtect Task Manager log / Отчёт auCDtect Task Manager

    -----------------------
    DON'T MODIFY THIS FILE
    -----------------------
    PERFORMER: auCDtect Task Manager, ver. 1.5.1RC3 build 1.5.1.4
    Copyright (c) 2008-2010 y-soft. All rights reserved
    ANALYZER: auCDtect: CD records authenticity detector, version 0.8.2
    Copyright (c) 2004 Oleg Berngardt. All rights reserved.
    Copyright (c) 2004 Alexander Djourik. All rights reserved.
    FILE: Mahler. Kindertotenlieder; Brahms. Liebeslieder-Walzer (Ferrier, Klemperer).flac
    Size: 224542707 Hash: EE2E77DB35FBA89EAFB66471FE4775BF Accuracy: -m0
    Conclusion: CDDA 100%
    Signature: 7D4A6F533B349F6CFC51E4BA87B335B703B71900

    CUETools log / Отчёт CUETools

    [CUETools log; Date: 23.11.2013 00:13:01; Version: 2.1.4]
    Pregap length 00:00:33.
    [AccurateRip ID: 00335ea0-0338555f-640b7f18] found.
    Track [ CRC | V2 ] Status
    01 [5f9a5e89|50fc3a41] (07+04/11) Accurately ripped
    02 [0063b766|4964f45d] (07+04/11) Accurately ripped
    03 [67ce1bde|fee23b37] (07+04/11) Accurately ripped
    04 [da505172|391a60fd] (07+04/11) Accurately ripped
    05 [163d9bb8|18e5252e] (07+04/11) Accurately ripped
    06 [6bfd6258|9494d549] (07+04/11) Accurately ripped
    07 [e96d5051|49c11d0a] (07+04/11) Accurately ripped
    08 [f25bed6b|6c8b1aaa] (07+04/11) Accurately ripped
    09 [4260cf97|e962819b] (07+04/11) Accurately ripped
    10 [e6dd11aa|57cc5f2a] (07+04/11) Accurately ripped
    11 [125d1b9a|0900a208] (07+04/11) Accurately ripped
    12 [5bc380fe|ee62c098] (07+04/11) Accurately ripped
    13 [f6155a61|818825ea] (07+04/11) Accurately ripped
    14 [beca28b2|bcd9196c] (07+04/11) Accurately ripped
    15 [96ffb2a1|51e63ccb] (07+04/11) Accurately ripped
    16 [08557f65|a33552b4] (07+04/11) Accurately ripped
    17 [1d567731|bb94daea] (07+04/11) Accurately ripped
    18 [39d24250|1d849e6c] (07+04/11) Accurately ripped
    19 [39edb42b|a9b9b255] (07+04/11) Accurately ripped
    20 [47d16f7b|8109fbe9] (07+04/11) Accurately ripped
    21 [0a3e69de|f0bc6a14] (07+04/11) Accurately ripped
    22 [7c46800d|534b8da3] (07+04/11) Accurately ripped
    23 [938a8bc7|123ebb87] (07+04/11) Accurately ripped
    24 [a6ac512b|21fc799a] (07+04/11) Accurately ripped
    Track Peak [ CRC32 ] [W/O NULL] [ LOG ]
    -- 85,7 [66E71C1F] [D8A5E62D] CRC32
    01 83,5 [40C74171] [3B88712F]
    02 73,9 [26E66444] [D345A5C5]
    03 77,4 [D71AF10C] [0099E80F]
    04 62,8 [262CF8FE] [B41F7B4B]
    05 85,7 [8B8641C5] [0BE930DC]
    06 81,0 [2EFA1804] [02417BFE]
    07 76,7 [B863A1E8] [641CF258]
    08 65,2 [714C5617] [B2F2F830]
    09 64,3 [9D5F7D36] [3FCE5C50]
    10 84,8 [F631DA34] [B11E1669]
    11 84,4 [79FDA08C] [653D578E]
    12 71,2 [99D4DFC0] [B1D4A44F]
    13 75,1 [24AB1606] [0B7DA1DA]
    14 85,2 [F6F0DD18] [707FA301]
    15 75,1 [49CC70B1] [3866E9DF]
    16 82,9 [72F46A7B] [2A0FBDD3]
    17 65,6 [51C465CB] [7BC18F49]
    18 59,0 [B19148A3] [2F49091C]
    19 54,6 [1E9D7262] [A4D71826]
    20 61,9 [52BF4734] [E5FB7FDF]
    21 64,7 [98C796C0] [9CA56998]
    22 55,4 [C6357F58] [4F72CAB5]
    23 62,3 [D220BB58] [24BCA3AA]
    24 60,1 [497BB183] [595AC31E]

    CUE sheet

    REM GENRE Classical
    REM DISCID 640B7F18
    REM COMMENT ExactAudioCopy v1.0b3
    PERFORMER "Kathleen Ferrier"
    TITLE "Gustav Mahler: Kindertotenlieder; Johannes Brahms: Liebeslieder-Walzer"
    FILE "Mahler. Kindertotenlieder; Brahms. Liebeslieder-Walzer (Ferrier, Klemperer).flac" WAVE
    TRACK 01 AUDIO
    TITLE "Kindertotenlieder: I. «Nun will die Sonn' so hell aufgeh'n»"
    PERFORMER "Kathleen Ferrier, Concertgebouworkest. Otto Klemperer, conductor"
    REM DATE 1951
    INDEX 00 00:00:00
    INDEX 01 00:00:33
    TRACK 02 AUDIO
    TITLE "Kindertotenlieder: II. «Nun seh' ich wohl, warum so dunkle Flammen»"
    PERFORMER "Kathleen Ferrier, Concertgebouworkest. Otto Klemperer, conductor"
    REM DATE 1951
    INDEX 01 04:56:58
    TRACK 03 AUDIO
    TITLE "Kindertotenlieder: III. «Wenn dein Mütterlein tritt zur Tür herein»"
    PERFORMER "Kathleen Ferrier, Concertgebouworkest. Otto Klemperer, conductor"
    REM DATE 1951
    INDEX 01 08:49:50
    TRACK 04 AUDIO
    TITLE "Kindertotenlieder: IV. «Oft denk' ich, sie sind nur augesgangen»"
    PERFORMER "Kathleen Ferrier, Concertgebouworkest. Otto Klemperer, conductor"
    REM DATE 1951
    INDEX 01 12:54:00
    TRACK 05 AUDIO
    TITLE "Kindertotenlieder: V. «In diesem Wetter, in diesem Braus»"
    PERFORMER "Kathleen Ferrier, Concertgebouworkest. Otto Klemperer, conductor"
    REM DATE 1951
    INDEX 00 15:56:58
    INDEX 01 15:58:35
    TRACK 06 AUDIO
    TITLE "Liebeslieder-Walzer, Op. 52: Nr. 1. Rede, Mädchen, allzu liebes"
    PERFORMER "Irmgard Seefried, Kathleen Ferrier, Julius Patzak, Horst Günter, Clifford Curzon, Hans Gál"
    REM DATE 1952
    INDEX 00 22:32:63
    INDEX 01 22:40:33
    TRACK 07 AUDIO
    TITLE "Liebeslieder-Walzer, Op. 52: Nr. 2. Am Gesteine rauscht die Flut"
    PERFORMER "Irmgard Seefried, Kathleen Ferrier, Julius Patzak, Horst Günter, Clifford Curzon, Hans Gál"
    REM DATE 1952
    INDEX 01 23:54:28
    TRACK 08 AUDIO
    TITLE "Liebeslieder-Walzer, Op. 52: Nr. 3. O die Frauen"
    PERFORMER "Julius Patzak, Horst Günter, Clifford Curzon, Hans Gál"
    REM DATE 1952
    INDEX 01 24:39:05
    TRACK 09 AUDIO
    TITLE "Liebeslieder-Walzer, Op. 52: Nr. 4. Wie des Abends schöne Röte"
    PERFORMER "Irmgard Seefried, Kathleen Ferrier, Clifford Curzon, Hans Gál"
    REM DATE 1952
    INDEX 01 25:45:13
    TRACK 10 AUDIO
    TITLE "Liebeslieder-Walzer, Op. 52: Nr. 5. Die grüne Hopfenranke"
    PERFORMER "Irmgard Seefried, Kathleen Ferrier, Julius Patzak, Horst Günter, Clifford Curzon, Hans Gál"
    REM DATE 1952
    INDEX 01 26:36:43
    TRACK 11 AUDIO
    TITLE "Liebeslieder-Walzer, Op. 52: Nr. 6. Ein kleiner, hübscher Vogel"
    PERFORMER "Irmgard Seefried, Kathleen Ferrier, Julius Patzak, Horst Günter, Clifford Curzon, Hans Gál"
    REM DATE 1952
    INDEX 01 28:15:13
    TRACK 12 AUDIO
    TITLE "Liebeslieder-Walzer, Op. 52: Nr. 7. Wohl schön bewandt war es"
    PERFORMER "Irmgard Seefried, Clifford Curzon, Hans Gál"
    REM DATE 1952
    INDEX 01 30:52:48
    TRACK 13 AUDIO
    TITLE "Liebeslieder-Walzer, Op. 52: Nr. 8. Wenn so lind dein Augen mir"
    PERFORMER "Irmgard Seefried, Kathleen Ferrier, Julius Patzak, Horst Günter, Clifford Curzon, Hans Gál"
    REM DATE 1952
    INDEX 00 32:22:08
    INDEX 01 32:24:53
    TRACK 14 AUDIO
    TITLE "Liebeslieder-Walzer, Op. 52: Nr. 9. Am Donaustrande"
    PERFORMER "Irmgard Seefried, Kathleen Ferrier, Julius Patzak, Horst Günter, Clifford Curzon, Hans Gál"
    REM DATE 1952
    INDEX 00 33:57:58
    INDEX 01 34:01:70
    TRACK 15 AUDIO
    TITLE "Liebeslieder-Walzer, Op. 52: Nr. 10. O wie sanft die Quelle"
    PERFORMER "Irmgard Seefried, Kathleen Ferrier, Julius Patzak, Horst Günter, Clifford Curzon, Hans Gál"
    REM DATE 1952
    INDEX 01 36:13:10
    TRACK 16 AUDIO
    TITLE "Liebeslieder-Walzer, Op. 52: Nr. 11. Nein, est ist nicht auszukommen"
    PERFORMER "Irmgard Seefried, Kathleen Ferrier, Julius Patzak, Clifford Curzon, Hans Gál"
    REM DATE 1952
    INDEX 01 37:15:70
    TRACK 17 AUDIO
    TITLE "Liebeslieder-Walzer, Op. 52: Nr. 12. Schlosser auf, und mache Schlösser"
    PERFORMER "Irmgard Seefried, Kathleen Ferrier, Julius Patzak, Horst Günter, Clifford Curzon, Hans Gál"
    REM DATE 1952
    INDEX 01 38:06:25
    TRACK 18 AUDIO
    TITLE "Liebeslieder-Walzer, Op. 52: Nr. 13. Vögelein, durchrauscht die Luft"
    PERFORMER "Irmgard Seefried, Kathleen Ferrier, Clifford Curzon, Hans Gál"
    REM DATE 1952
    INDEX 01 38:48:58
    TRACK 19 AUDIO
    TITLE "Liebeslieder-Walzer, Op. 52: Nr. 14. Sieh, wie ist die Welle klar"
    PERFORMER "Julius Patzak, Horst Günter, Clifford Curzon, Hans Gál"
    REM DATE 1952
    INDEX 01 39:32:58
    TRACK 20 AUDIO
    TITLE "Liebeslieder-Walzer, Op. 52: Nr. 15. Nachtigall, sie singt so schön"
    PERFORMER "Irmgard Seefried, Kathleen Ferrier, Julius Patzak, Horst Günter, Clifford Curzon, Hans Gál"
    REM DATE 1952
    INDEX 01 40:30:58
    TRACK 21 AUDIO
    TITLE "Liebeslieder-Walzer, Op. 52: Nr. 16. Ein dunkeler Schacht ist Liebe"
    PERFORMER "Irmgard Seefried, Kathleen Ferrier, Julius Patzak, Horst Günter, Clifford Curzon, Hans Gál"
    REM DATE 1952
    INDEX 00 41:45:68
    INDEX 01 41:50:05
    TRACK 22 AUDIO
    TITLE "Liebeslieder-Walzer, Op. 52: Nr. 17. Nicht wandle, mein Licht"
    PERFORMER "Julius Patzak, Clifford Curzon, Hans Gál"
    REM DATE 1952
    INDEX 00 43:07:28
    INDEX 01 43:11:33
    TRACK 23 AUDIO
    TITLE "Liebeslieder-Walzer, Op. 52: Nr. 18. Es bebet das Gesträuche"
    PERFORMER "Irmgard Seefried, Kathleen Ferrier, Julius Patzak, Horst Günter, Clifford Curzon, Hans Gál"
    REM DATE 1952
    INDEX 00 45:02:50
    INDEX 01 45:06:53
    TRACK 24 AUDIO
    TITLE "Neue Liebeslieder-Walzer, Op. 65: Nr. 15. Zum Schluß"
    PERFORMER "Irmgard Seefried, Kathleen Ferrier, Julius Patzak, Horst Günter, Clifford Curzon, Hans Gál"
    REM DATE 1952
    INDEX 00 46:32:13
    INDEX 01 46:38:25
    -
    Gustav Mahler — каталог раздач на rutracker.orgJohannes Brahms — каталог раздач на rutracker.orgВсе мои раздачи / All my releases



  • Показать сообщения:    

    Текущее время: 03-Дек 12:34

    Часовой пояс: UTC + 3


    Вы не можете начинать темы
    Вы не можете отвечать на сообщения
    Вы не можете редактировать свои сообщения
    Вы не можете удалять свои сообщения
    Вы не можете голосовать в опросах
    Вы не можете прикреплять файлы к сообщениям
    Вы не можете скачивать файлы