(Classical) Franz Anton Hoffmeister - Flute Concertos Nos. 21 & 24 - Bruno Meier, Prague Chamber Orchestra - 2013, FLAC (image+.cue) lossless


Статистика раздачи [Обновить пиров]
Размер:  263 MB   |    Зарегистрирован:  8 месяцев 17 дней   |    Скачан:  0 раз

Полного источника не было: Никогда

 
   
 
 
 

[Цитировать]

Franz Anton Hoffmeister - Flute Concertos Nos. 21 & 24 - Bruno Meier, Prague Chamber Orchestra
Жанр: Classical
Год издания диска: 2013
Издатель (лейбл): Naxos
Номер по каталогу: 8.572738
Дата записи: 2011
Аудиокодек: FLAC
Тип рипа: image+.cue
Битрейт аудио: lossless
Продолжительность: 57:16
Источник: собственный рип
Наличие сканов в содержимом раздачи: да
Треклист:
Franz Anton Hoffmeister (1754-1812)
[1]-[3] Flute Concerto No. 24 in D major
[4]-[6] Flute Concerto No. 21 in D major
World première recordings
Исполнители:
Bruno Meier flute
Prague Chamber Orchestra

Лог создания рипа

Exact Audio Copy V1.0 beta 3 from 29. August 2011
EAC extraction logfile from 23. October 2013, 17:40
Bruno Meier, Prague Chamber Orchestra / Hoffmeister - Flute Concertos Nos. 21 & 24
Used drive : HL-DT-STDVDRRW GWA-4164B Adapter: 5 ID: 0
Read mode : Secure
Utilize accurate stream : Yes
Defeat audio cache : Yes
Make use of C2 pointers : No
Read offset correction : 102
Overread into Lead-In and Lead-Out : No
Fill up missing offset samples with silence : Yes
Delete leading and trailing silent blocks : No
Null samples used in CRC calculations : Yes
Used interface : Native Win32 interface for Win NT & 2000
Used output format : User Defined Encoder
Selected bitrate : 896 kBit/s
Quality : High
Add ID3 tag : No
Command line compressor : C:\Program Files\Exact Audio Copy\FLAC\FLAC.EXE
Additional command line options : -V -8 %source%
TOC of the extracted CD
Track | Start | Length | Start sector | End sector
---------------------------------------------------------
1 | 0:00.00 | 15:03.23 | 0 | 67747
2 | 15:03.23 | 6:15.10 | 67748 | 95882
3 | 21:18.33 | 9:14.74 | 95883 | 137506
4 | 30:33.32 | 13:22.42 | 137507 | 197698
5 | 43:55.74 | 7:01.60 | 197699 | 229333
6 | 50:57.59 | 6:16.16 | 229334 | 257549
Range status and errors
Selected range
Filename C:\temp\Hoffmeister - Flute Concertos Nos. 21 & 24 (Bruno Meier, Prague Chamber Orchestra)\Hoffmeister - Flute Concertos Nos. 21 & 24.wav
Peak level 100.0 %
Extraction speed 2.6 X
Range quality 100.0 %
Test CRC D3628470
Copy CRC D3628470
Copy OK
No errors occurred
AccurateRip summary
Track 1 cannot be verified as accurate (confidence 1) [42265CF8], AccurateRip returned [8ADFF8EB] (AR v2)
Track 2 cannot be verified as accurate (confidence 1) [BC9244FF], AccurateRip returned [1123298C] (AR v2)
Track 3 cannot be verified as accurate (confidence 1) [4524457C], AccurateRip returned [86C94708] (AR v2)
Track 4 cannot be verified as accurate (confidence 1) [D182E8A3], AccurateRip returned [44395855] (AR v2)
Track 5 cannot be verified as accurate (confidence 1) [BACDEF78], AccurateRip returned [4A9FDF1D] (AR v2)
Track 6 cannot be verified as accurate (confidence 1) [6BA97A4A], AccurateRip returned [70F6F594] (AR v2)
No tracks could be verified as accurate
You may have a different pressing from the one(s) in the database
End of status report
==== Log checksum 42341146B288BA6CD14F599607E588EECAFC19DEC490986A5C5D4BC565E8B8A4 ====
[teatrix.ru].t17890.torrent 
Торрент: Зарегистрирован [ 2016-03-17 00:48 ] · 14FA6F036F5F8DEC412A0D0D32285ED61830EDCE

Скачать .torrent

Скачать

22 KB

Статус: проверено
Скачан: 0 раз
Размер: 263 MB
terms.php



Быстрый ответ

Имя:

      
Для отправки сообщений необходимо включить JavaScript
Показать сообщения:    

Текущее время: 03-Дек 16:39

Часовой пояс: UTC + 3


Вы можете начинать темы
Вы можете отвечать на сообщения
Вы не можете редактировать свои сообщения
Вы не можете удалять свои сообщения
Вы не можете голосовать в опросах
Вы не можете прикреплять файлы к сообщениям
Вы можете скачивать файлы