(Classical, Baroque, Authentic, Wind) Georg Philipp Telemann - Wind Concertos. Vol. 4 [La Stagione Frankfurt, Michael Schneider], CPO 2009,FLAC (image+.cue), lossless


Статистика раздачи [Обновить пиров]
Размер:  287 MB   |    Зарегистрирован:  8 месяцев 18 дней   |    Скачан:  0 раз

Полного источника не было: Никогда

 
   
 
 
 

[Цитировать]

Georg Philipp TelemannConcerti per strumenti a fiato. Tomo Quarto.
TWV 51:D2, 51:e1, 51:A2, 52:a2, 53:h1

Концерты для духовых. Том Четвёртый.-- Жанр: Classical, Baroque, Authentic, Wind
Страна-производитель диска: Germany
Год издания: 2009
Лейбл: CPO
Номер в каталоге: CPO 777 400-2
Аудиокодек: FLAC
Тип рипа: image+.cue
Битрейт аудио: lossless
Продолжительность: 01:00:47
Наличие сканов: имеются
Источник: релизёр
LOSSY-La Stagione Frankfurt
Michael Schneider direttore e flautista
Karl Kaiser e Martin Hublow flautisti
Martin Stadler oboista
Marita Schaar fagottista

Треклист

01. TWV 52:a2 - Concerto in La minore per due flauti dolci, archi e basso continuo - I. Gravement [00:02:53]
02. II. Vistement [00:01:33]
03. III. Largement [00:02:18]
04. IV. Vivement [00:02:34]
05. TWV 51:D2 - Concerto in Re maggiore per flauto traversiere, archi e basso continuo - I. Moderato [00:02:27]
06. II. Allegro [00:03:28]
07. III. Largo [00:03:36]
08. IV. Vivace [00:03:13]
09. TWV 51:A2 - Concerto in La maggiore per oboe d'amore, archi e basso continuo - I. Siciliano [00:02:57]
10. II. Allegro [00:02:48]
11. III. Largo [00:04:24]
12. IV. Vivace [00:04:53]
13. TWV 53:h1 - Concerto in Si minore per due flauti traversieri, fagotto, archi e basso continuo - I. Grave [00:03:36]
14. II. Vivace [00:02:24]
15. III. Dolce [00:02:26]
16. IV. Allegro [00:02:44]
17. TWV 51:e1 - Concerto in Mi minore per oboe, archi e basso continuo - I. Andante [00:03:01]
18. II. Allegro molto [00:02:35]
19. III. Largo [00:04:25]
20. IV. Allegro [00:02:25]

LOG EAC

Exact Audio Copy V1.0 beta 3 from 29. August 2011
EAC extraction logfile from 6. March 2013, 9:08
La Stagione Frankfurt / Telemann. Concerti per strumenti a fiato. Tomo Quarto [CPO 2009].
Used drive : TSSTcorpCDDVDW SH-222BB Adapter: 2 ID: 1
Read mode : Secure
Utilize accurate stream : Yes
Defeat audio cache : Yes
Make use of C2 pointers : No
Read offset correction : 6
Overread into Lead-In and Lead-Out : No
Fill up missing offset samples with silence : Yes
Delete leading and trailing silent blocks : No
Null samples used in CRC calculations : Yes
Used interface : Native Win32 interface for Win NT & 2000
Used output format : User Defined Encoder
Selected bitrate : 1024 kBit/s
Quality : High
Add ID3 tag : No
Command line compressor : C:\Program Files\Exact Audio Copy\Flac\flac.exe
Additional command line options : -8 -V -T "TITLE=%title%" -T "ARTIST=%artist%" -T "ALBUMARTIST=%albumartist%" -T "ALBUM=%albumtitle%" -T "DATE=%year%" -T "TRACKNUMBER=%tracknr%" -T "TRACKTOTAL=%numtracks%" -T "GENRE=%genre%" -T "COMMENT=%comment%" -T "PERFORMER=%albuminterpret%" -T "COMPOSER=%composer%" %source% -o %dest%
TOC of the extracted CD
Track | Start | Length | Start sector | End sector
---------------------------------------------------------
1 | 0:00.00 | 2:53.66 | 0 | 13040
2 | 2:53.66 | 1:33.18 | 13041 | 20033
3 | 4:27.09 | 2:17.73 | 20034 | 30381
4 | 6:45.07 | 2:34.53 | 30382 | 41984
5 | 9:19.60 | 2:27.07 | 41985 | 53016
6 | 11:46.67 | 3:28.23 | 53017 | 68639
7 | 15:15.15 | 3:36.37 | 68640 | 84876
8 | 18:51.52 | 3:13.11 | 84877 | 99362
9 | 22:04.63 | 2:57.18 | 99363 | 112655
10 | 25:02.06 | 2:48.56 | 112656 | 125311
11 | 27:50.62 | 4:24.30 | 125312 | 145141
12 | 32:15.17 | 4:53.13 | 145142 | 167129
13 | 37:08.30 | 3:36.39 | 167130 | 183368
14 | 40:44.69 | 2:24.07 | 183369 | 194175
15 | 43:09.01 | 2:26.19 | 194176 | 205144
16 | 45:35.20 | 2:44.03 | 205145 | 217447
17 | 48:19.23 | 3:01.38 | 217448 | 231060
18 | 51:20.61 | 2:35.12 | 231061 | 242697
19 | 53:55.73 | 4:25.65 | 242698 | 262637
20 | 58:21.63 | 2:25.15 | 262638 | 273527
Range status and errors
Selected range
Filename D:\ Telemann / Telemann. Concerti per strumenti a fiato. Tomo Quarto [CPO 2009] \ Telemann. Concerti per strumenti a fiato. Tomo Quarto [CPO 2009].wav
Peak level 88.6 %
Extraction speed 7.4 X
Range quality 99.9 %
Test CRC F51386B2
Copy CRC F51386B2
Copy OK
No errors occurred
AccurateRip summary
Track 1 accurately ripped (confidence 2) [995C43F1] (AR v2)
Track 2 accurately ripped (confidence 2) [5E97ED2B] (AR v2)
Track 3 accurately ripped (confidence 2) [26C123EB] (AR v2)
Track 4 accurately ripped (confidence 2) [C0D78A43] (AR v2)
Track 5 accurately ripped (confidence 2) [4376A65E] (AR v2)
Track 6 accurately ripped (confidence 2) [88547351] (AR v2)
Track 7 accurately ripped (confidence 2) [ECBE79C3] (AR v2)
Track 8 accurately ripped (confidence 2) [AD8915A9] (AR v2)
Track 9 accurately ripped (confidence 2) [930644D4] (AR v2)
Track 10 accurately ripped (confidence 2) [52F6E642] (AR v2)
Track 11 accurately ripped (confidence 2) [C9D0EF46] (AR v2)
Track 12 accurately ripped (confidence 2) [1739EE3D] (AR v2)
Track 13 accurately ripped (confidence 2) [8532A0AF] (AR v2)
Track 14 accurately ripped (confidence 2) [A0D5E476] (AR v2)
Track 15 accurately ripped (confidence 2) [BC29C7BF] (AR v2)
Track 16 accurately ripped (confidence 2) [8FC6FB27] (AR v2)
Track 17 accurately ripped (confidence 2) [FE1C89FD] (AR v2)
Track 18 accurately ripped (confidence 2) [82E9880B] (AR v2)
Track 19 accurately ripped (confidence 2) [A47B3632] (AR v2)
Track 20 accurately ripped (confidence 2) [540575C8] (AR v2)
All tracks accurately ripped
End of status report

.CUE

REM GENRE Musica barocca
REM DISCID 080E3F14
REM COMMENT "TitoManlio"
TITLE "Telemann. Concerti per strumenti a fiato. Tomo Quarto [CPO 2009]."
FILE "Telemann. Concerti per strumenti a fiato. Tomo Quarto [CPO 2009].flac" WAVE
TRACK 01 AUDIO
TITLE "Concerto TWV 52:a2 in La minore per due flauti dolci, archi e basso continuo - I. Gravement"
PERFORMER "La Stagione Frankfurt, Michael Schneider [direttore e flautista], Martin Hublow [flautista]"
FLAGS DCP
INDEX 01 00:00:00
TRACK 02 AUDIO
TITLE "Concerto TWV 52:a2 in La minore per due flauti dolci, archi e basso continuo - II. Vistement"
PERFORMER "La Stagione Frankfurt, Michael Schneider [direttore e flautista], Martin Hublow [flautista]"
FLAGS DCP
INDEX 01 02:53:66
TRACK 03 AUDIO
TITLE "Concerto TWV 52:a2 in La minore per due flauti dolci, archi e basso continuo - III. Largement"
PERFORMER "La Stagione Frankfurt, Michael Schneider [direttore e flautista], Martin Hublow [flautista]"
FLAGS DCP
INDEX 01 04:27:09
TRACK 04 AUDIO
TITLE "Concerto TWV 52:a2 in La minore per due flauti dolci, archi e basso continuo - IV. Vivement"
PERFORMER "La Stagione Frankfurt, Michael Schneider [direttore e flautista], Martin Hublow [flautista]"
FLAGS DCP
INDEX 01 06:45:07
TRACK 05 AUDIO
TITLE "Concerto TWV 51:D2 in Re maggiore per flauto traversiere, archi e basso continuo - I. Moderato"
PERFORMER "La Stagione Frankfurt, Michael Schneider [direttore], Karl Kaiser [flautista]"
FLAGS DCP
INDEX 00 09:13:56
INDEX 01 09:19:60
TRACK 06 AUDIO
TITLE "Concerto TWV 51:D2 in Re maggiore per flauto traversiere, archi e basso continuo - II. Allegro"
PERFORMER "La Stagione Frankfurt, Michael Schneider [direttore], Karl Kaiser [flautista]"
FLAGS DCP
INDEX 01 11:46:67
TRACK 07 AUDIO
TITLE "Concerto TWV 51:D2 in Re maggiore per flauto traversiere, archi e basso continuo - III. Largo"
PERFORMER "La Stagione Frankfurt, Michael Schneider [direttore], Karl Kaiser [flautista]"
FLAGS DCP
INDEX 01 15:15:15
TRACK 08 AUDIO
TITLE "Concerto TWV 51:D2 in Re maggiore per flauto traversiere, archi e basso continuo - IV. Vivace"
PERFORMER "La Stagione Frankfurt, Michael Schneider [direttore], Karl Kaiser [flautista]"
FLAGS DCP
INDEX 01 18:51:52
TRACK 09 AUDIO
TITLE "Concerto TWV 51:A2 in La maggiore per oboe d'amore, archi e basso continuo - I. Siciliano"
PERFORMER "La Stagione Frankfurt, Michael Schneider [direttore], Martin Stadler [oboista]"
FLAGS DCP
INDEX 00 21:58:60
INDEX 01 22:04:63
TRACK 10 AUDIO
TITLE "Concerto TWV 51:A2 in La maggiore per oboe d'amore, archi e basso continuo - II. Allegro"
PERFORMER "La Stagione Frankfurt, Michael Schneider [direttore], Martin Stadler [oboista]"
FLAGS DCP
INDEX 01 25:02:06
TRACK 11 AUDIO
TITLE "Concerto TWV 51:A2 in La maggiore per oboe d'amore, archi e basso continuo - III. Largo"
PERFORMER "La Stagione Frankfurt, Michael Schneider [direttore], Martin Stadler [oboista]"
FLAGS DCP
INDEX 01 27:50:62
TRACK 12 AUDIO
TITLE "Concerto TWV 51:A2 in La maggiore per oboe d'amore, archi e basso continuo - IV. Vivace"
PERFORMER "La Stagione Frankfurt, Michael Schneider [direttore], Martin Stadler [oboista]"
FLAGS DCP
INDEX 01 32:15:17
TRACK 13 AUDIO
TITLE "Concerto TWV 53:h1 in Si minore per due flauti traversieri, fagotto, archi e basso continuo - I. Grave"
PERFORMER "La Stagione Frankfurt, Michael Schneider [direttore e flautista], Karl Kaiser [flautista], Marita Schaar [fagottista]"
FLAGS DCP
INDEX 00 37:02:69
INDEX 01 37:08:30
TRACK 14 AUDIO
TITLE "Concerto TWV 53:h1 in Si minore per due flauti traversieri, fagotto, archi e basso continuo - II. Vivace"
PERFORMER "La Stagione Frankfurt, Michael Schneider [direttore e flautista], Karl Kaiser [flautista], Marita Schaar [fagottista]"
FLAGS DCP
INDEX 01 40:44:69
TRACK 15 AUDIO
TITLE "Concerto TWV 53:h1 in Si minore per due flauti traversieri, fagotto, archi e basso continuo - III. Dolce"
PERFORMER "La Stagione Frankfurt, Michael Schneider [direttore e flautista], Karl Kaiser [flautista], Marita Schaar [fagottista]"
FLAGS DCP
INDEX 01 43:09:01
TRACK 16 AUDIO
TITLE "Concerto TWV 53:h1 in Si minore per due flauti traversieri, fagotto, archi e basso continuo - IV. Allegro"
PERFORMER "La Stagione Frankfurt, Michael Schneider [direttore e flautista], Karl Kaiser [flautista], Marita Schaar [fagottista]"
FLAGS DCP
INDEX 01 45:35:20
TRACK 17 AUDIO
TITLE "Concerto TWV 51:e1 in Mi minore per oboe, archi e basso continuo - I. Andante"
PERFORMER "La Stagione Frankfurt, Michael Schneider [direttore], Martin Stadler [oboista]"
FLAGS DCP
INDEX 00 48:13:11
INDEX 01 48:19:23
TRACK 18 AUDIO
TITLE "Concerto TWV 51:e1 in Mi minore per oboe, archi e basso continuo - II. Allegro molto"
PERFORMER "La Stagione Frankfurt, Michael Schneider [direttore], Martin Stadler [oboista]"
FLAGS DCP
INDEX 01 51:20:61
TRACK 19 AUDIO
TITLE "Concerto TWV 51:e1 in Mi minore per oboe, archi e basso continuo - III. Largo"
PERFORMER "La Stagione Frankfurt, Michael Schneider [direttore], Martin Stadler [oboista]"
FLAGS DCP
INDEX 01 53:55:73
TRACK 20 AUDIO
TITLE "Concerto TWV 51:e1 in Mi minore per oboe, archi e basso continuo - IV. Allegro"
PERFORMER "La Stagione Frankfurt, Michael Schneider [direttore], Martin Stadler [oboista]"
FLAGS DCP
INDEX 01 58:21:63
--Смотрите также: -Просьба не уходить с раздачи!!!
[teatrix.ru].t17891.torrent 
Торрент: Зарегистрирован [ 2016-03-17 00:48 ] · 1E0B00937CF4E7DF9B69D66EE6BA8A128889FAEB

Скачать .torrent

Скачать

13 KB

Статус: проверено
Скачан: 0 раз
Размер: 287 MB
terms.php



Быстрый ответ

Имя:

      
Для отправки сообщений необходимо включить JavaScript
Показать сообщения:    

Текущее время: 04-Дек 02:56

Часовой пояс: UTC + 3


Вы можете начинать темы
Вы можете отвечать на сообщения
Вы не можете редактировать свои сообщения
Вы не можете удалять свои сообщения
Вы не можете голосовать в опросах
Вы не можете прикреплять файлы к сообщениям
Вы можете скачивать файлы