(Classical) The King'singers,The Harp Consort,Andrew Lawrence-King: Fire-Water, The Spirit of Renaissance Spain (Texerana.Penalosa.Morales.Flecha el Viejo.Gurrero.Cabezon.Gutierrez.Murcia) 2000 APE (img+cue) lossless


Статистика раздачи [Обновить пиров]
Размер:  294 MB   |    Зарегистрирован:  8 месяцев 25 дней   |    Скачан:  0 раз

Полного источника не было: Никогда

 
   
 
 
 

[Цитировать]

Fire-Water: The Spirit of Renaissance Spain
Жанр: Classical
Страна-производитель диска: EU
Год издания диска: 2000
Издатель (лейбл): RCA Red Seal
Номер по каталогу: 09026 63519 2
Дата записи: 1999
Аудиокодек: APE
Тип рипа: image+.cue
Битрейт аудио: lossless
Продолжительность: 01:10:51
Источник: скачано с avaxhome
Наличие сканов в содержимом раздачи: да
Треклист:
01 Anonimo - Vuestros son mis ojos 1:10
02 Anonimo - Enemiga le soy, madre 2:05
03 Texerana, Gabriel de - Aquel pastorçico, madre 1:45
04 Peñalosa, Francisco - Por las sierras de Madrid 2:07
05 Morales, Cristobal de - Benedictus 1:17
06 Anonimo - Otro tal misacantano 1:53
07 Flecha el Viejo, Mateo - La bomba 10:59
08 Anonimo - Dindirin, dindirin 2:04
09 Anonimo - Rodrigo Martinez 1:43
10 Gurrero, Francisco - Antes que comais a Dios 2:46
11 Flecha el Viejo, Mateo - El fuego 10:46
12 Cabezón, Antonio de - Differencias sobre ''Las vacas'' 4:19
13 Gutiérrez de Padilla, Juan - Aleph, quomodo sedet sola civitas 2:42
14 Flecha el Viejo, Mateo - La viuda 12:02
15 Anonimo - Oh, que bien que baila Gil! 2:26
16 Murcia, Santiago de - Zarambaques 2:31
17 Anonimo - Hoy, Gil, en concejo abierto 8:26
Исполнители:
The King'singers / The Harp Consort / Andrew Lawrence-King

Лог создания рипа

Exact Audio Copy V1.0 beta 3 from 29. August 2011
EAC extraction logfile from 30. April 2013, 19:19
King's Singers, The Harp Concort, Lawrence-King / Fire-Water - The Spirit of Renaissance Spain
Used drive : PIONEER BD-RW BDR-206 Adapter: 0 ID: 2
Read mode : Secure
Utilize accurate stream : Yes
Defeat audio cache : Yes
Make use of C2 pointers : No
Read offset correction : 667
Overread into Lead-In and Lead-Out : No
Fill up missing offset samples with silence : Yes
Delete leading and trailing silent blocks : No
Null samples used in CRC calculations : Yes
Used interface : Native Win32 interface for Win NT & 2000
Used output format : User Defined Encoder
Selected bitrate : 1024 kBit/s
Quality : High
Add ID3 tag : Yes
Command line compressor : C:\Program Files\FLAC\flac.exe
Additional command line options : -5 -T "Artist=%artist%" -T "Title=%title%" -T "Album=%albumtitle%" -T "Date=%year%" -T "Tracknumber=%tracknr%" -T "Genre=%genre%" %source% -o %dest%
TOC of the extracted CD
Track | Start | Length | Start sector | End sector
---------------------------------------------------------
1 | 0:00.00 | 1:09.62 | 0 | 5236
2 | 1:09.62 | 2:04.58 | 5237 | 14594
3 | 3:14.45 | 1:45.15 | 14595 | 22484
4 | 4:59.60 | 2:07.07 | 22485 | 32016
5 | 7:06.67 | 1:17.03 | 32017 | 37794
6 | 8:23.70 | 1:53.05 | 37795 | 46274
7 | 10:17.00 | 10:59.20 | 46275 | 95719
8 | 21:16.20 | 2:04.02 | 95720 | 105021
9 | 23:20.22 | 1:42.65 | 105022 | 112736
10 | 25:03.12 | 2:46.18 | 112737 | 125204
11 | 27:49.30 | 10:46.30 | 125205 | 173684
12 | 38:35.60 | 4:18.50 | 173685 | 193084
13 | 42:54.35 | 2:41.55 | 193085 | 205214
14 | 45:36.15 | 12:02.32 | 205215 | 259396
15 | 57:38.47 | 2:25.63 | 259397 | 270334
16 | 60:04.35 | 2:30.40 | 270335 | 281624
17 | 62:35.00 | 8:25.70 | 281625 | 319569
Range status and errors
Selected range
Filename F:\=== VINYL RIPS ===\=== EAC===\X FRESH RIP\King's Singers, The Harp Concort, Lawrence-King - Fire-Water - The Spirit of Renaissance Spain.wav
Peak level 99.9 %
Extraction speed 8.0 X
Range quality 99.9 %
Copy CRC 481B521D
Copy OK
No errors occurred
AccurateRip summary
Track 1 accurately ripped (confidence 2) [66724F2E] (AR v2)
Track 2 accurately ripped (confidence 2) [1F493C63] (AR v2)
Track 3 accurately ripped (confidence 2) [EE1A8402] (AR v2)
Track 4 accurately ripped (confidence 2) [7412FCFE] (AR v2)
Track 5 accurately ripped (confidence 2) [11895092] (AR v2)
Track 6 accurately ripped (confidence 2) [67FBD6B7] (AR v2)
Track 7 accurately ripped (confidence 2) [CE3D8DCC] (AR v2)
Track 8 accurately ripped (confidence 2) [D2BB2F6C] (AR v2)
Track 9 accurately ripped (confidence 2) [EA542DAB] (AR v2)
Track 10 accurately ripped (confidence 2) [F63810DA] (AR v2)
Track 11 accurately ripped (confidence 2) [025472BA] (AR v2)
Track 12 accurately ripped (confidence 2) [AAAFD147] (AR v2)
Track 13 accurately ripped (confidence 2) [3B06C85B] (AR v2)
Track 14 accurately ripped (confidence 2) [5D553C5D] (AR v2)
Track 15 accurately ripped (confidence 2) [936A238F] (AR v2)
Track 16 accurately ripped (confidence 2) [5ACBD155] (AR v2)
Track 17 accurately ripped (confidence 2) [E9BF9F24] (AR v2)
All tracks accurately ripped
End of status report
---- CUETools DB Plugin V2.1.3
[CTDB TOCID: 1uC494eHwF8nruM2cCUB2S8SEZ0-] found, Submit result: 1uC494eHwF8nruM2cCUB2S8SEZ0- has been confirmed
[691f36ce] (1/1) Accurately ripped
==== Log checksum 19E4BDA7C9D54FC4C068CFDBA786252BF40D0DBBEF0C169683868498C755C110 ====

Лог проверки качества

AUDIOCHECKER v2.0 beta (build 457) - by Dester - opdester@freemail.hu
~~~~~~~~~~~~~~~~~~~~~~~~~~~~~~~~~~
-=== DO NOT EDIT THIS FILE! ===-
Path: ...\King's Singers - Fire-Water - The Spirit of Renaissance Spain {2000}
1 -=- King's Singers, The Harp Concort, Lawrence-King - Fire-Water - The Spirit of Renaissance Spain.wav -=- CDDA (99%)
163008564
[teatrix.ru].t17892.torrent 
Торрент: Зарегистрирован [ 2016-03-17 00:48 ] · 76AC504E1B14F5493F597CC6EE88880E6F5270C3

Скачать .torrent

Скачать

12 KB

Статус: проверено
Скачан: 0 раз
Размер: 294 MB
terms.php



Быстрый ответ

Имя:

      
Для отправки сообщений необходимо включить JavaScript
Показать сообщения:    

Текущее время: 11-Дек 05:18

Часовой пояс: UTC + 3


Вы можете начинать темы
Вы можете отвечать на сообщения
Вы не можете редактировать свои сообщения
Вы не можете удалять свои сообщения
Вы не можете голосовать в опросах
Вы не можете прикреплять файлы к сообщениям
Вы можете скачивать файлы