Сны Валентина Виноградова (Андрей Кудиненко) [1998, Документальный, биография, кинематограф, DVDRip]


Статистика раздачи [Обновить пиров]
Размер:  226 MB   |    Зарегистрирован:  8 месяцев 24 дня   |    Скачан:  0 раз

Полного источника не было: Никогда

 
   
 
 
 

[Цитировать]

Сны Валентина Виноградова
Год выпуска: 1998
Страна: Россия
Жанр: Документальный, биография, кинематограф
Продолжительность: 00:14:59
Перевод: Не требуется
Русские субтитры: нет

Режиссер: Андрей Кудиненко
Описание: Фильм посвящен белорусскому режиссеру Владимиру Виноградову, создавшему ряд художественных фильмов, таких как: Жди меня Анна, Восточный коридор и т.д.

Доп. информация: Фильмография Валентина Виноградова:

скрытый текст

«День, когда исполняется 30 лет» (1961)
«Письма к живым» (1964)
«Восточный коридор» (1966, авт. сц., совм. с А. Кучаром)
«Жди меня, Анна!» (1969).
на др. к/с: (реж.) т/ф «Синяя пустошь» (1972)
«Белый танец» (1981)
(сц.) «Земляки» (1974, совм. с В. Шукшиным)
«Кольца Альманзора» (1977).
Релиз:
Исходный материал предоставил некто Андрей, автор релиза: pmv
качество: DVDRip
формат: AVI
Видео: 720x552 (1.30:1), 25 fps, XviD MPEG-4 ~1999 kbps avg, 0.20 bit/pixel
Аудио: 48 kHz, MPEG Layer 3, 1 ch, ~96.00 kbps avg

Список выпусков/серий

1 серия

MediaInfo

Формат : AVI
Формат/Информация : Audio Video Interleave
Размер файла : 226 Мбайт
Продолжительность : 14 м.
Общий поток : 2106 Кбит/сек
Программа кодирования : VirtualDubMod 1.5.10.3 | www.virtualdub-fr.org || (build 2550/release)
Библиотека кодирования : VirtualDubMod build 2550/release
Видео
Идентификатор : 0
Формат : MPEG-4 Visual
Профиль формата : Simple@L1
Параметр BVOP формата : Нет
Параметр QPel формата : Нет
Параметр GMC формата : Без точки перехода
Параметр матрицы формата : Default (H.263)
Идентификатор кодека : XVID
Идентификатор кодека/Подсказка : XviD
Продолжительность : 14 м.
Битрейт : 2000 Кбит/сек
Ширина : 720 пикселей
Высота : 552 пикселя
Соотношение сторон : 4:3
Частота кадров : 25,000 кадров/сек
Цветовое пространство : YUV
Субдискретизация насыщенности : 4:2:0
Битовая глубина : 8 бит
Тип развёртки : Прогрессивная
Метод сжатия : С потерями
Бит/(Пиксели*Кадры) : 0.201
Размер потока : 215 Мбайт (95%)
Библиотека кодирования : Lavc53.33.0
Аудио
Идентификатор : 1
Формат : MPEG Audio
Версия формата : Version 1
Профиль формата : Layer 3
Идентификатор кодека : 55
Идентификатор кодека/Подсказка : MP3
Продолжительность : 14 м.
Вид битрейта : Постоянный
Битрейт : 96,0 Кбит/сек
Каналы : 1 канал
Частота : 48,0 КГц
Метод сжатия : С потерями
Размер потока : 10,3 Мбайт (5%)
Выравнивание : Соединение по промежуткам
Продолжительность промежутка : 40 мс. (1,00 видеокадр)
Время предзагрузки промежутка : 504 мс.

Скриншоты

[teatrix.ru].t17893.torrent 
Торрент: Зарегистрирован [ 2016-03-17 00:48 ] · CA815848A5DA664844AD759C9E342F4726A4C13C

Скачать .torrent

Скачать

18 KB

Статус: проверено
Скачан: 0 раз
Размер: 226 MB
terms.php



Показать сообщения:    

Текущее время: 10-Дек 09:59

Часовой пояс: UTC + 3


Вы не можете начинать темы
Вы не можете отвечать на сообщения
Вы не можете редактировать свои сообщения
Вы не можете удалять свои сообщения
Вы не можете голосовать в опросах
Вы не можете прикреплять файлы к сообщениям
Вы можете скачивать файлы