(Baroque Cantata) Handel - Aminta e Fillide (Gillian Fisher, Patrizia Kwella - The London Handel Orchestra, Denys Darlow) - 2001, FLAC (image+.cue) lossless


 

[Цитировать]

Handel - Aminta e Fillide
Жанр: Baroque Cantata
Страна-производитель диска: Germany
Год издания диска: 2001
Издатель (лейбл): Hyperion
Номер по каталогу: CDH55077
Дата записи: 1984
Аудиокодек: FLAC
Тип рипа: image+.cue
Битрейт аудио: lossless
Продолжительность: 54'50
Источник: собственный рип
Наличие сканов в содержимом раздачи: да
Треклист:
1 Arresta il passo, ninfa [2'23]
2 Fermati, non fuggir! [4'01]
3 Fiamma bella che al ciel s'invia [5'31]
4 Forse un giorno [5'47] Gillian Fisher
5 Fu scherzo, fu gioco [6'26]
6 Se vago rio [3'38]
7 Sento che il dio bambin [3'10]
8 Al dispetto di sorte crudele [5'56]
9 E un fuoco quel d'amore [3'17]
10 Chi ben ama non paventa [3'44]
11 Non si può dar un cor [6'04]
12 Per abbatter il rigore d'un crudel [4'46]Исполнители:
George Frideric Handel (1685 1759) - Aminta e Fillide, Cantata 'Arresta il passo' HWV83
Aminta - Gillian Fisher (soprano)
Filide - Patrizia Kwella (soprano)
The London Handel Orchestra
Denys Darlow

Лог создания рипа

Exact Audio Copy V1.0 beta 3 from 29. August 2011
EAC extraction logfile from 24. November 2013, 12:59
Handel / Aminta e Fillide, Darlow 1984
Used drive : HL-DT-STDVD-RAM GSA-H55N Adapter: 0 ID: 0
Read mode : Secure
Utilize accurate stream : Yes
Defeat audio cache : Yes
Make use of C2 pointers : No
Read offset correction : 102
Overread into Lead-In and Lead-Out : No
Fill up missing offset samples with silence : Yes
Delete leading and trailing silent blocks : No
Null samples used in CRC calculations : Yes
Used interface : Native Win32 interface for Win NT & 2000
Used output format : User Defined Encoder
Selected bitrate : 768 kBit/s
Quality : High
Add ID3 tag : No
Command line compressor : C:\Program Files\Exact Audio Copy\FLAC\FLAC.EXE
Additional command line options : -6 -V -T "ARTIST=%artist%" -T "TITLE=%title%" -T "ALBUM=%albumtitle%" -T "DATE=%year%" -T "TRACKNUMBER=%tracknr%" -T "GENRE=%genre%" -T "COMMENT=%comment%" -T "BAND=%albuminterpret%" -T "ALBUMARTIST=%albuminterpret%" -T "COMPOSER=%composer%" %haslyrics%--tag-from-file=LYRICS="%lyricsfile%"%haslyrics% -T "DISCNUMBER=%cdnumber%" -T "TOTALDISCS=%totalcds%" -T "TOTALTRACKS=%numtracks%" %hascover%--picture="%coverfile%"%hascover% %source% -o %dest%
TOC of the extracted CD
Track | Start | Length | Start sector | End sector
---------------------------------------------------------
1 | 0:00.00 | 2:23.48 | 0 | 10772
2 | 2:23.48 | 4:01.17 | 10773 | 28864
3 | 6:24.65 | 5:31.68 | 28865 | 53757
4 | 11:56.58 | 5:47.17 | 53758 | 79799
5 | 17:44.00 | 6:26.38 | 79800 | 108787
6 | 24:10.38 | 3:38.27 | 108788 | 125164
7 | 27:48.65 | 3:10.50 | 125165 | 139464
8 | 30:59.40 | 5:56.63 | 139465 | 166227
9 | 36:56.28 | 3:17.67 | 166228 | 181069
10 | 40:14.20 | 3:44.60 | 181070 | 197929
11 | 43:59.05 | 6:04.60 | 197930 | 225289
12 | 50:03.65 | 4:46.45 | 225290 | 246784
Range status and errors
Selected range
Filename L:\04 NAAR RUTRACKER\Handel - Aminta e Fillide, Darlow 1984.wav
Peak level 93.4 %
Extraction speed 2.6 X
Range quality 99.9 %
Test CRC 45699551
Copy CRC 45699551
Copy OK
No errors occurred
AccurateRip summary
Track 1 cannot be verified as accurate (confidence 3) [208A49E0], AccurateRip returned [D56AFE99] (AR v2)
Track 2 cannot be verified as accurate (confidence 3) [43A67E10], AccurateRip returned [43546701] (AR v2)
Track 3 cannot be verified as accurate (confidence 3) [76A5A676], AccurateRip returned [2544FBEC] (AR v2)
Track 4 cannot be verified as accurate (confidence 3) [02DF893B], AccurateRip returned [DA3593AF] (AR v2)
Track 5 cannot be verified as accurate (confidence 3) [F5985925], AccurateRip returned [3FE8A411] (AR v2)
Track 6 cannot be verified as accurate (confidence 3) [48D7BB1C], AccurateRip returned [86AB1ECC] (AR v2)
Track 7 cannot be verified as accurate (confidence 3) [6FD1718C], AccurateRip returned [24CF9795] (AR v2)
Track 8 cannot be verified as accurate (confidence 3) [C22EAD4D], AccurateRip returned [ADC2F479] (AR v2)
Track 9 cannot be verified as accurate (confidence 3) [34EE4DB7], AccurateRip returned [0D2CF3FF] (AR v2)
Track 10 cannot be verified as accurate (confidence 3) [AB470F8D], AccurateRip returned [3BA7DC6C] (AR v2)
Track 11 cannot be verified as accurate (confidence 3) [3B894A6E], AccurateRip returned [91056295] (AR v2)
Track 12 cannot be verified as accurate (confidence 3) [ABCAFA5F], AccurateRip returned [4659C31B] (AR v2)
No tracks could be verified as accurate
You may have a different pressing from the one(s) in the database
End of status report
---- CUETools DB Plugin V2.1.3
[CTDB TOCID: NTpzsVgwK4OIPyfNG0PGrOY2okw-] found, Submit result: NTpzsVgwK4OIPyfNG0PGrOY2okw- has been confirmed
[7d5778b8] (5/5) Accurately ripped
==== Log checksum EB19E89C8C7076D41998A91B803BCD080FFD281FFE4F7C8AF68C8FF5EE40B3B0 ====

Содержание индексной карты (.CUE)

REM GENRE Opera
REM DATE 2001
REM DISCID 930CDA0C
REM COMMENT "ExactAudioCopy v1.0b3"
CATALOG 0034571150772
PERFORMER "Handel"
TITLE "Aminta e Fillide, Darlow 1984"
FILE "Handel - Aminta e Fillide, Darlow 1984.flac" WAVE
TRACK 01 AUDIO
TITLE "Recitativo - Arresta il passo, ninfa"
PERFORMER "Handel"
ISRC GBAJY8511801
FLAGS PRE
INDEX 01 00:00:00
TRACK 02 AUDIO
TITLE "Aria - Fermati, non fuggir"
PERFORMER "Handel"
ISRC GBAJY8511802
FLAGS PRE
INDEX 00 02:19:69
INDEX 01 02:23:48
TRACK 03 AUDIO
TITLE "Duetto - Fiamma bella che al ciel s'invia"
PERFORMER "Handel"
ISRC GBAJY8511803
FLAGS PRE
INDEX 00 06:21:11
INDEX 01 06:24:65
TRACK 04 AUDIO
TITLE "Aira - Forse un giorno"
PERFORMER "Handel"
ISRC GBAJY8511804
FLAGS PRE
INDEX 00 11:53:04
INDEX 01 11:56:58
TRACK 05 AUDIO
TITLE "Duetto - Fu scherzo, fu gioco"
PERFORMER "Handel"
ISRC GBAJY8511805
FLAGS PRE
INDEX 00 17:40:21
INDEX 01 17:44:00
TRACK 06 AUDIO
TITLE "Deutto - Se vago rio"
PERFORMER "Handel"
ISRC GBAJY8511806
FLAGS PRE
INDEX 00 24:06:59
INDEX 01 24:10:38
TRACK 07 AUDIO
TITLE "Aria - Sento che il dio bambin"
PERFORMER "Handel"
ISRC GBAJY8511807
FLAGS PRE
INDEX 00 27:45:11
INDEX 01 27:48:65
TRACK 08 AUDIO
TITLE "Aria - Al dispetto di sorte crudele"
PERFORMER "Handel"
ISRC GBAJY8511808
FLAGS PRE
INDEX 00 30:55:61
INDEX 01 30:59:40
TRACK 09 AUDIO
TITLE "Duetto - E un fuoco quel d'amore"
PERFORMER "Handel"
ISRC GBAJY8511809
FLAGS PRE
INDEX 00 36:52:49
INDEX 01 36:56:28
TRACK 10 AUDIO
TITLE "Aria - Chi ben ama non paventa"
PERFORMER "Handel"
ISRC GBAJY8511810
FLAGS PRE
INDEX 00 40:10:41
INDEX 01 40:14:20
TRACK 11 AUDIO
TITLE "Aria - Non si può dar un cor"
PERFORMER "Handel"
ISRC GBAJY8511811
FLAGS PRE
INDEX 00 43:55:26
INDEX 01 43:59:05
TRACK 12 AUDIO
TITLE "Duetto - Per abbatter il rigore d'un crudel"
PERFORMER "Handel"
ISRC GBAJY8511812
FLAGS PRE
INDEX 00 50:00:11
INDEX 01 50:03:65
Доп. информация:
This recording was made in St Barnabas's Church, North Finchley in January 1984 and is a very classy production.
Denys Darlow was one of the finest conductors of early music and this recording is a welcome reminder of that.
For its time (circa 1706) this cantata was original in many ways.
Three hundred years on we can all say that it sounds very much like so much other music of its time and therefore is predictable.
The depiction of cruel fate is beautifully written and the work seems to improve as it progresses.
Sadly, human nature tends to want a really good beginning in order for any work of art in this form to be accepted.
The two singers are superb.
Whether one is espoused to the music or not the singers are very fine indeed.
The purity of their voices, the splendid intonation and the secure high notes are worthy of our sincere admiration and, in my case, the performers have it.
The orchestral accompaniment is very good as well with dedicated musicians and a conductor of first class status.



Показать сообщения:    

Текущее время: 04-Дек 09:06

Часовой пояс: UTC + 3


Вы не можете начинать темы
Вы не можете отвечать на сообщения
Вы не можете редактировать свои сообщения
Вы не можете удалять свои сообщения
Вы не можете голосовать в опросах
Вы не можете прикреплять файлы к сообщениям
Вы не можете скачивать файлы