(Classical) Хубаи – Скрипичные концерты № 1 – 4 [2 CDs] / Hubay – Complete violin concertos (Szabadi, Kovacs) - 2001, FLAC (image+.cue) lossless


Статистика раздачи [Обновить пиров]
Размер:  476 MB   |    Зарегистрирован:  8 месяцев 24 дня   |    Скачан:  0 раз

Полного источника не было: Никогда

 
   
 
 
 

[Цитировать]

Хубаи – Скрипичные концерты № 1 – 4 [2 CDs] / Hubay – Complete violin concertos (Szabadi, Kovács)
Жанр: Classical
Страна-производитель диска: Австрия
Год издания диска: 2001
Издатель (лейбл): Hungaroton Classic
Номер по каталогу: HCD 31976-77
Дата записи: 14 — 17 марта, 10 — 13 апреля 2000 г.; 16 — 18 января 2001 г.
Аудиокодек: FLAC
Тип рипа: image+.cue
Битрейт аудио: lossless
Продолжительность: 00:51:58 + 00:51:41
Источник: odeonmusic
Наличие сканов в содержимом раздачи: да
Треклист:
Ене Хубаи (Ойген Хубер; 1858 — 1937).
Полное собрание концертов для скрипки с оркестром.
CD 1.
Скрипичный концерт № 1 a-moll «Драматический», op. 21 (1884 — 1885).
01. I. Allegro appassionato [11:12].
02. II. Andante ma non tanto [08:25].
03. III. Allegro con brio. — Un poco più vivo [08:04].
Скрипичный концерт № 2 E-dur, op. 90 (ок. 1900).
04. I. Allegro con fuoco [10:37].
05. II. Larghetto [06:47].
06. III. Allegro giocoso [06:37].
CD 2.
Скрипичный концерт № 3 g-moll, op. 99 (1906 — 1907).
01. I. Introduzione quasi fantasia. Moderato. — Tempo poco meno. — Allegro. — Allegro moderato [05:07].
02. II. Scherzo. Presto. — Allegro vivo [04:43].
03. III. Adagio. Moderato [09:48].
04. IV. Allegro con fuoco [09:12].
Скрипичный концерт № 4 a-moll «В старинном стиле», op. 101 (1906 — 1907).
05. I. Прелюдия. Largo [05:48].
06. II. Куранта и мюзет. Presto [03:25].
07. III. Ларгетто. Adagio [07:41].
08. IV. Финал в духе каприччио. Allegro [05:36].
Исполнители:
Vilmos Szabadi (скрипка).
Miskolci Szimfonikus Zenekar (North Hungarian SO, Miskolc).
Дирижер László Kovács.

Логи создания рипаCD 1.

Exact Audio Copy V1.0 beta 3 from 29. August 2011
EAC extraction logfile from 3. September 2013, 11:51
Vilmos Szabadi / Hubay - Violin Concertos - Vilmos Szabadi (Disc 1)
Used drive : TSSTcorpCDDVDW SH-222BB Adapter: 2 ID: 1
Read mode : Secure
Utilize accurate stream : Yes
Defeat audio cache : Yes
Make use of C2 pointers : No
Read offset correction : 6
Overread into Lead-In and Lead-Out : No
Fill up missing offset samples with silence : Yes
Delete leading and trailing silent blocks : No
Null samples used in CRC calculations : Yes
Used interface : Native Win32 interface for Win NT & 2000
Used output format : User Defined Encoder
Selected bitrate : 1024 kBit/s
Quality : High
Add ID3 tag : No
Command line compressor : C:\Program Files\Exact Audio Copy\Flac\flac.exe
Additional command line options : -8 -V -T "TITLE=%title%" -T "ARTIST=%artist%" -T "ALBUMARTIST=%albumartist%" -T "ALBUM=%albumtitle%" -T "DATE=%year%" -T "TRACKNUMBER=%tracknr%" -T "TRACKTOTAL=%numtracks%" -T "GENRE=%genre%" -T "COMMENT=%comment%" -T "PERFORMER=%albuminterpret%" -T "COMPOSER=%composer%" %source% -o %dest%
TOC of the extracted CD
Track | Start | Length | Start sector | End sector
---------------------------------------------------------
1 | 0:00.00 | 11:12.12 | 0 | 50411
2 | 11:12.12 | 8:26.15 | 50412 | 88376
3 | 19:38.27 | 8:12.17 | 88377 | 125293
4 | 27:50.44 | 10:39.48 | 125294 | 173266
5 | 38:30.17 | 6:49.73 | 173267 | 204014
6 | 45:20.15 | 6:37.70 | 204015 | 233859
Range status and errors
Selected range
Filename E:\4000\[4122] Hubay – Violin Concertos – Vilmos Szabadi\cd1\Hubay - Violin Concertos - Vilmos Szabadi (Disc 1).wav
Peak level 97.7 %
Extraction speed 6.5 X
Range quality 99.9 %
Test CRC 0D32B05B
Copy CRC 0D32B05B
Copy OK
No errors occurred
AccurateRip summary
Track 1 not present in database
Track 2 not present in database
Track 3 not present in database
Track 4 not present in database
Track 5 not present in database
Track 6 not present in database
None of the tracks are present in the AccurateRip database
End of status report

CD 2.

Exact Audio Copy V1.0 beta 3 from 29. August 2011
EAC extraction logfile from 3. September 2013, 12:04
Vilmos Szabadi / Hubay - Violin Concertos - Vilmos Szabadi (Disc 2)
Used drive : TSSTcorpCDDVDW SH-222BB Adapter: 2 ID: 1
Read mode : Secure
Utilize accurate stream : Yes
Defeat audio cache : Yes
Make use of C2 pointers : No
Read offset correction : 6
Overread into Lead-In and Lead-Out : No
Fill up missing offset samples with silence : Yes
Delete leading and trailing silent blocks : No
Null samples used in CRC calculations : Yes
Used interface : Native Win32 interface for Win NT & 2000
Used output format : User Defined Encoder
Selected bitrate : 1024 kBit/s
Quality : High
Add ID3 tag : No
Command line compressor : C:\Program Files\Exact Audio Copy\Flac\flac.exe
Additional command line options : -8 -V -T "TITLE=%title%" -T "ARTIST=%artist%" -T "ALBUMARTIST=%albumartist%" -T "ALBUM=%albumtitle%" -T "DATE=%year%" -T "TRACKNUMBER=%tracknr%" -T "TRACKTOTAL=%numtracks%" -T "GENRE=%genre%" -T "COMMENT=%comment%" -T "PERFORMER=%albuminterpret%" -T "COMPOSER=%composer%" %source% -o %dest%
TOC of the extracted CD
Track | Start | Length | Start sector | End sector
---------------------------------------------------------
1 | 0:00.00 | 5:07.15 | 0 | 23039
2 | 5:07.15 | 4:43.66 | 23040 | 44330
3 | 9:51.06 | 9:48.50 | 44331 | 88480
4 | 19:39.56 | 9:21.24 | 88481 | 130579
5 | 29:01.05 | 5:52.57 | 130580 | 157036
6 | 34:53.62 | 3:27.30 | 157037 | 172591
7 | 38:21.17 | 7:44.06 | 172592 | 207397
8 | 46:05.23 | 5:36.03 | 207398 | 232600
Range status and errors
Selected range
Filename E:\4000\[4122] Hubay – Violin Concertos – Vilmos Szabadi\cd2\Hubay - Violin Concertos - Vilmos Szabadi (Disc 2).wav
Peak level 96.7 %
Extraction speed 6.5 X
Range quality 100.0 %
Test CRC 369090B3
Copy CRC 369090B3
Copy OK
No errors occurred
AccurateRip summary
Track 1 not present in database
Track 2 not present in database
Track 3 not present in database
Track 4 not present in database
Track 5 not present in database
Track 6 not present in database
Track 7 not present in database
Track 8 not present in database
None of the tracks are present in the AccurateRip database
End of status report

Содержание индексных карт (.CUE)CD 1.

REM GENRE Classical
REM DISCID 420C2E06
REM COMMENT "ExactAudioCopy v1.0b3"
PERFORMER "Vilmos Szabadi & Laszlo Kovacs"
TITLE "Hubay – Violin Concertos – Vilmos Szabadi (Disc 1)"
FILE "Hubay – Violin Concertos – Vilmos Szabadi (Disc 1).flac" WAVE
TRACK 01 AUDIO
TITLE "Violin Concerto No. 1 in A minor 'Dramatique', Op. 21 - I. Allegro appassionato"
PERFORMER "Vilmos Szabadi & Laszlo Kovacs"
INDEX 01 00:00:00
TRACK 02 AUDIO
TITLE "Violin Concerto No. 1 in A minor 'Dramatique', Op. 21 - II. Adagio ma non tanto"
PERFORMER "Vilmos Szabadi & Laszlo Kovacs"
INDEX 01 11:12:12
TRACK 03 AUDIO
TITLE "Violin Concerto No. 1 in A minor 'Dramatique', Op. 21 - III. Allegro con brio"
PERFORMER "Vilmos Szabadi & Laszlo Kovacs"
INDEX 00 19:37:57
INDEX 01 19:38:27
TRACK 04 AUDIO
TITLE "Violin Concerto No. 2 in E major, Op. 90 - I. Allegro con fuoco"
PERFORMER "Vilmos Szabadi & Laszlo Kovacs"
INDEX 00 27:42:38
INDEX 01 27:50:44
TRACK 05 AUDIO
TITLE "Violin Concerto No. 2 in E major, Op. 90 - II. Larghetto"
PERFORMER "Vilmos Szabadi & Laszlo Kovacs"
INDEX 00 38:27:54
INDEX 01 38:30:17
TRACK 06 AUDIO
TITLE "Violin Concerto No. 2 in E major, Op. 90 - III. Allegro non troppo"
PERFORMER "Vilmos Szabadi & Laszlo Kovacs"
INDEX 00 45:18:00
INDEX 01 45:20:15

CD 2.

REM GENRE Classical
REM DISCID 670C1D08
REM COMMENT "ExactAudioCopy v1.0b3"
PERFORMER "Vilmos Szabadi & Laszlo Kovacs"
TITLE "Hubay – Violin Concertos – Vilmos Szabadi (Disc 2)"
FILE "Hubay – Violin Concertos – Vilmos Szabadi (Disc 2).flac" WAVE
TRACK 01 AUDIO
TITLE "Violin Concerto No. 3 in G minor, Op. 99 - I. Introduction quasi fantasia. Moderato"
PERFORMER "Vilmos Szabadi & Laszlo Kovacs"
INDEX 01 00:00:00
TRACK 02 AUDIO
TITLE "Violin Concerto No. 3 in G minor, Op. 99 - II. Scherzo. Presto"
PERFORMER "Vilmos Szabadi & Laszlo Kovacs"
INDEX 01 05:07:15
TRACK 03 AUDIO
TITLE "Violin Concerto No. 3 in G minor, Op. 99 - III. Adagio. Moderato"
PERFORMER "Vilmos Szabadi & Laszlo Kovacs"
INDEX 01 09:51:06
TRACK 04 AUDIO
TITLE "Violin Concerto No. 3 in G minor, Op. 99 - IV. Finale. Allegro con fuoco"
PERFORMER "Vilmos Szabadi & Laszlo Kovacs"
INDEX 01 19:39:56
TRACK 05 AUDIO
TITLE "Violin Concerto No. 4 in A minor 'All'antica', Op. 101 - I. Preludio. Largo"
PERFORMER "Vilmos Szabadi & Laszlo Kovacs"
INDEX 00 28:52:43
INDEX 01 29:01:05
TRACK 06 AUDIO
TITLE "Violin Concerto No. 4 in A minor 'All'antica', Op. 101 - II. Corrente e musetto. Presto"
PERFORMER "Vilmos Szabadi & Laszlo Kovacs"
INDEX 00 34:49:57
INDEX 01 34:53:62
TRACK 07 AUDIO
TITLE "Violin Concerto No. 4 in A minor 'All'antica', Op. 101 - III. Larghetto. Adagio"
PERFORMER "Vilmos Szabadi & Laszlo Kovacs"
INDEX 00 38:19:00
INDEX 01 38:21:17
TRACK 08 AUDIO
TITLE "Violin Concerto No. 4 in A monir 'All'antica', Op. 101 - IV. Finale a capriccio. Allegro"
PERFORMER "Vilmos Szabadi & Laszlo Kovacs"
INDEX 00 46:02:66
INDEX 01 46:05:23
-Ене Хубаи.
Скрипичные концерты № 1 и 2 (Hagai Shaham, Martyn Brabbins).
Скрипичные концерты № 1 и 2 (Chloë Hanslip, Andrew Mogrelia).
Скрипичные концерты № 3 и 4 (Hagai Shaham, Martyn Brabbins).
[teatrix.ru].t17899.torrent 
Торрент: Зарегистрирован [ 2016-03-17 00:47 ] · 0D9FE1A3395BA7DF5BD78271ABEC9CD9227E64F5

Скачать .torrent

Скачать

20 KB

Статус: проверено
Скачан: 0 раз
Размер: 476 MB
terms.php



Быстрый ответ

Имя:

      
Для отправки сообщений необходимо включить JavaScript
Показать сообщения:    

Текущее время: 10-Дек 19:38

Часовой пояс: UTC + 3


Вы можете начинать темы
Вы можете отвечать на сообщения
Вы не можете редактировать свои сообщения
Вы не можете удалять свои сообщения
Вы не можете голосовать в опросах
Вы не можете прикреплять файлы к сообщениям
Вы можете скачивать файлы