(Classical) Vinum et Musica - Songs & dances from Nuremberg sources (15th & 16th century) - Capella de la Torre, Katharina Bauml (Bäuml), Dominique Visse - 2012, FLAC (image+.cue) lossless


 

[Цитировать]

Vinum et Musica - Songs & dances from Nuremberg sources (15th & 16th century) - Capella de la Torre, Katharina Bäuml, Dominique Visse
Жанр: Classical
Страна-производитель диска: Netherlands
Год издания диска: 2012
Издатель (лейбл): Challenge Records
Номер по каталогу: CC72544
Дата записи: 2010
Аудиокодек: FLAC
Тип рипа: image+.cue
Битрейт аудио: lossless
Продолжительность: 70:01
Источник: собственный рип
Наличие сканов в содержимом раздачи: да
Треклист:
Vinum et Musica
Songs & dances from Nuremberg sources (15th & 16th century)
[1] Anonymous: Fanfare
[2] Robert Morton: L'Homme arme а 4
[3] Arnold von Bruck: Fortitudo Dei regnantis а 6
[4] Anonymous: Basse Danse Aliot Nouvelle
[5] Anonymous: Hymnus in vitam S. Sebaldi а 3
[6] Salomone Rossi: Kaddish а 5
[7] Konrad Paumann: Benedicite Almechtiger Gott
[8] Josquin Desprez: Ave Maria a 6
[9] Brüder Hess: Tanz/Nachtanz а 5
[10] Guillaume Dufay: Se la face ay pale а 3 & a 4
[11] Konrad Paumann: Se la phase pale
[12] Anonymous: Ich spring an diesem Ringe
[13] Josquin Desprez: Salve Regina prima pars
[14] Arnold von Bruck: So trinken wir alle а 5
[15] Anonymous: Passamezzo
[16] Adrian Willaert: Dulces exuviae
[17] Paul Hofhaimer: Exegi monumentum aere perennius
[18] Ludwig Senfl: Fortuna - nasci, pati, mori
[19] Adrian Willaert: Vecchie Letrose
Исполнители:
Capella de la Torre
Katharina Bäuml

with Dominique Visse

Лог создания рипа

Exact Audio Copy V1.0 beta 3 from 29. August 2011
EAC extraction logfile from 28. October 2013, 16:22
Capella de la Torre / Vinum et Musica - Songs & dances from Nuremberg sources (15th &16th century)
Used drive : HL-DT-STDVDRRW GWA-4164B Adapter: 5 ID: 0
Read mode : Secure
Utilize accurate stream : Yes
Defeat audio cache : Yes
Make use of C2 pointers : No
Read offset correction : 102
Overread into Lead-In and Lead-Out : No
Fill up missing offset samples with silence : Yes
Delete leading and trailing silent blocks : No
Null samples used in CRC calculations : Yes
Used interface : Native Win32 interface for Win NT & 2000
Used output format : User Defined Encoder
Selected bitrate : 896 kBit/s
Quality : High
Add ID3 tag : No
Command line compressor : C:\Program Files\Exact Audio Copy\FLAC\FLAC.EXE
Additional command line options : -V -8 %source%
TOC of the extracted CD
Track | Start | Length | Start sector | End sector
---------------------------------------------------------
1 | 0:00.00 | 1:51.24 | 0 | 8348
2 | 1:51.24 | 1:27.49 | 8349 | 14922
3 | 3:18.73 | 3:27.19 | 14923 | 30466
4 | 6:46.17 | 3:23.20 | 30467 | 45711
5 | 10:09.37 | 3:10.65 | 45712 | 60026
6 | 13:20.27 | 6:34.66 | 60027 | 89642
7 | 19:55.18 | 2:28.32 | 89643 | 100774
8 | 22:23.50 | 6:03.04 | 100775 | 128003
9 | 28:26.54 | 2:31.24 | 128004 | 139352
10 | 30:58.03 | 3:42.01 | 139353 | 156003
11 | 34:40.04 | 2:17.23 | 156004 | 166301
12 | 36:57.27 | 3:23.69 | 166302 | 181595
13 | 40:21.21 | 6:37.64 | 181596 | 211434
14 | 46:59.10 | 2:17.40 | 211435 | 221749
15 | 49:16.50 | 4:23.63 | 221750 | 241537
16 | 53:40.38 | 4:56.42 | 241538 | 263779
17 | 58:37.05 | 6:33.12 | 263780 | 293266
18 | 65:10.17 | 2:24.21 | 293267 | 304087
19 | 67:34.38 | 2:24.63 | 304088 | 314950
Range status and errors
Selected range
Filename D:\temp\Music\Vinum et Musica\Vinum et Musica.wav
Peak level 75.6 %
Extraction speed 3.2 X
Range quality 100.0 %
Test CRC CFDD9F03
Copy CRC CFDD9F03
Copy OK
No errors occurred
AccurateRip summary
Track 1 accurately ripped (confidence 1) [91EBF310] (AR v1)
Track 2 accurately ripped (confidence 1) [3C385575] (AR v1)
Track 3 accurately ripped (confidence 1) [25B47F92] (AR v1)
Track 4 accurately ripped (confidence 1) [A68CDC57] (AR v1)
Track 5 accurately ripped (confidence 1) [3CE4068D] (AR v1)
Track 6 accurately ripped (confidence 1) [1CCC0855] (AR v1)
Track 7 accurately ripped (confidence 1) [FE7643BD] (AR v1)
Track 8 accurately ripped (confidence 1) [78B2A605] (AR v1)
Track 9 accurately ripped (confidence 1) [CC49D545] (AR v1)
Track 10 accurately ripped (confidence 1) [F8C1D229] (AR v1)
Track 11 accurately ripped (confidence 1) [EF0D56F9] (AR v1)
Track 12 accurately ripped (confidence 1) [293A81B3] (AR v1)
Track 13 accurately ripped (confidence 1) [F81D6B2A] (AR v1)
Track 14 accurately ripped (confidence 1) [2545CD68] (AR v1)
Track 15 accurately ripped (confidence 1) [26556525] (AR v1)
Track 16 accurately ripped (confidence 1) [13484AC5] (AR v1)
Track 17 accurately ripped (confidence 1) [CC711C8E] (AR v1)
Track 18 accurately ripped (confidence 1) [E63B65EF] (AR v1)
Track 19 accurately ripped (confidence 1) [C5C138FB] (AR v1)
All tracks accurately ripped
End of status report
==== Log checksum 54356D88EE638C74EDE73E497E85E408E7FD9675E417E240C4D0B6F7BDC657C4 ====



Показать сообщения:    

Текущее время: 11-Дек 01:23

Часовой пояс: UTC + 3


Вы не можете начинать темы
Вы не можете отвечать на сообщения
Вы не можете редактировать свои сообщения
Вы не можете удалять свои сообщения
Вы не можете голосовать в опросах
Вы не можете прикреплять файлы к сообщениям
Вы не можете скачивать файлы