(Classical) Brahms Concertos (Grimaud; Nelsons; VPO; BRSO) (2CD) - 2013, FLAC (image+.cue) lossless


Статистика раздачи [Обновить пиров]
Размер:  388 MB   |    Зарегистрирован:  8 месяцев 22 дня   |    Скачан:  0 раз

Полного источника не было: Никогда

 
   
 
 
 

[Цитировать]

Brahms Concertos (Grimaud; Nelsons; VPO; BRSO)
Жанр: Classical
Страна-производитель диска: USA
Год издания диска: 2013
Издатель (лейбл): deutsche grammophon
Номер по каталогу: 0289 479 1058 9 2 CDs DDD GH2
Дата записи: 2012
Аудиокодек: FLAC
Тип рипа: image+.cue
Битрейт аудио: lossless
Продолжительность: 01:40:59
Источник: собственный рип
Наличие сканов в содержимом раздачи: да
Треклист:
CD 1: Brahms: Piano Concerto No.1 In D Minor, Op.15
Piano Concerto No.1 In D Minor, Op.15
1. 1. Maestoso - Poco più moderato 23:51
2. 2. Adagio 14:23
3. 3. Rondo (Allegro non troppo) 12:27
Hélène Grimaud, Bavarian Radio Symphony Orchestra, Andris Nelsons
Tiempo total de reproducción 50:41
CD 2: Brahms: Piano Concerto No.2 In B Flat, Op.83
Piano Concerto No.2 In B Flat, Op.83
1. 1. Allegro non troppo 18:52
2. 2. Allegro appassionato 9:25
3. 3. Andante - Più adagio 12:44
4. 4. Allegretto grazioso - Un poco più presto 9:17
Hélène Grimaud, Vienna Philharmonic Orchestra, Andris Nelsons
Tiempo total de reproducción 50:18
Исполнители:
Piano: Hélène Grimaud
Conductor: Andris Nelsons
Orchestras: Vienna Philharmonic Orchestra; Bavarian Radio Symphony Orchestra

Лог создания рипа

CD1

Exact Audio Copy V1.0 beta 3 from 29. August 2011
EAC extraction logfile from 28. November 2013, 23:28
Hélène Grimaud; Andris Nelsons; Symphonieorchester des Bayerischen Rundfunks / Brahm Piano Concertos (CD1)
Used drive : PIONEER DVD-RW DVR-112D Adapter: 0 ID: 1
Read mode : Secure
Utilize accurate stream : Yes
Defeat audio cache : Yes
Make use of C2 pointers : No
Read offset correction : 48
Overread into Lead-In and Lead-Out : No
Fill up missing offset samples with silence : Yes
Delete leading and trailing silent blocks : No
Null samples used in CRC calculations : Yes
Used interface : Native Win32 interface for Win NT & 2000
Used output format : User Defined Encoder
Selected bitrate : 768 kBit/s
Quality : High
Add ID3 tag : No
Command line compressor : C:\Program Files (x86)\FLAC\flac.exe
Additional command line options : -6 -V -T "ARTIST=%artist%" -T "TITLE=%title%" -T "ALBUM=%albumtitle%" -T "DATE=%year%" -T "TRACKNUMBER=%tracknr%" -T "GENRE=%genre%" -T "COMMENT=%comment%" -T "BAND=%albuminterpret%" -T "ALBUMARTIST=%albuminterpret%" -T "COMPOSER=%composer%" %haslyrics%--tag-from-file=LYRICS="%lyricsfile%"%haslyrics% -T "DISCNUMBER=%cdnumber%" -T "TOTALDISCS=%totalcds%" -T "TOTALTRACKS=%numtracks%" %hascover%--picture="%coverfile%"%hascover% %source% -o %dest%
TOC of the extracted CD
Track | Start | Length | Start sector | End sector
---------------------------------------------------------
1 | 0:00.00 | 23:50.56 | 0 | 107305
2 | 23:50.56 | 14:22.53 | 107306 | 172008
3 | 38:13.34 | 12:26.42 | 172009 | 228000
Range status and errors
Selected range
Filename C:\Users\Emmanuel\Desktop\grimaud; nelsons; VPO; BRSO; brahms PC 1 & 2\CD1\Hélène Grimaud; Andris Nelsons; Symphonieorchester des Bayerischen Rundfunks - Brahm Piano Concertos (CD1).wav
Peak level 94.7 %
Extraction speed 5.2 X
Range quality 99.8 %
Copy CRC 4E41F708
Copy OK
No errors occurred
AccurateRip summary
Track 1 accurately ripped (confidence 11) [44CB7E1A] (AR v2)
Track 2 accurately ripped (confidence 11) [18B39F4E] (AR v2)
Track 3 accurately ripped (confidence 11) [3CEED606] (AR v2)
All tracks accurately ripped
End of status report
---- CUETools DB Plugin V2.1.3
[CTDB TOCID: kDeao7spuuZobDaYVaVYoRO21UY-] found, Submit result: kDeao7spuuZobDaYVaVYoRO21UY- has been confirmed
[68165813] (9/9) Accurately ripped
==== Log checksum A238FDA1F69A0EE6161347AE66D30EE18F8ED9BF2EE095316490BE907DD7CB3D ====

CD2

Exact Audio Copy V1.0 beta 3 from 29. August 2011
EAC extraction logfile from 28. November 2013, 23:47
Hélène Grimaud; Andris Nelsons; Vienna Philharmonic Orchestra / Brahms Piano Concertos
Used drive : PIONEER DVD-RW DVR-112D Adapter: 0 ID: 1
Read mode : Secure
Utilize accurate stream : Yes
Defeat audio cache : Yes
Make use of C2 pointers : No
Read offset correction : 48
Overread into Lead-In and Lead-Out : No
Fill up missing offset samples with silence : Yes
Delete leading and trailing silent blocks : No
Null samples used in CRC calculations : Yes
Used interface : Native Win32 interface for Win NT & 2000
Used output format : User Defined Encoder
Selected bitrate : 768 kBit/s
Quality : High
Add ID3 tag : No
Command line compressor : C:\Program Files (x86)\FLAC\flac.exe
Additional command line options : -6 -V -T "ARTIST=%artist%" -T "TITLE=%title%" -T "ALBUM=%albumtitle%" -T "DATE=%year%" -T "TRACKNUMBER=%tracknr%" -T "GENRE=%genre%" -T "COMMENT=%comment%" -T "BAND=%albuminterpret%" -T "ALBUMARTIST=%albuminterpret%" -T "COMPOSER=%composer%" %haslyrics%--tag-from-file=LYRICS="%lyricsfile%"%haslyrics% -T "DISCNUMBER=%cdnumber%" -T "TOTALDISCS=%totalcds%" -T "TOTALTRACKS=%numtracks%" %hascover%--picture="%coverfile%"%hascover% %source% -o %dest%
TOC of the extracted CD
Track | Start | Length | Start sector | End sector
---------------------------------------------------------
1 | 0:00.00 | 18:51.43 | 0 | 84867
2 | 18:51.43 | 9:25.32 | 84868 | 127274
3 | 28:17.00 | 12:44.08 | 127275 | 184582
4 | 41:01.08 | 9:17.15 | 184583 | 226372
Range status and errors
Selected range
Filename C:\Users\Emmanuel\Desktop\grimaud; nelsons; VPO; BRSO; brahms PC 1 & 2\CD2\Hélène Grimaud; Andris Nelsons; Vienna Philharmonic Orchestra - Brahms Piano Concertos.wav
Peak level 90.1 %
Extraction speed 6.7 X
Range quality 99.9 %
Copy CRC 4F0F4459
Copy OK
No errors occurred
AccurateRip summary
Track 1 accurately ripped (confidence 11) [6E6779DD] (AR v2)
Track 2 accurately ripped (confidence 11) [518EC23C] (AR v2)
Track 3 accurately ripped (confidence 11) [1F001520] (AR v2)
Track 4 accurately ripped (confidence 11) [CDC46823] (AR v2)
All tracks accurately ripped
End of status report
---- CUETools DB Plugin V2.1.3
[CTDB TOCID: XNi7qn7KdmJTp.9XgwIMP1BsFnI-] found, Submit result: XNi7qn7KdmJTp.9XgwIMP1BsFnI- has been confirmed
[f07742f3] (9/9) Accurately ripped
==== Log checksum 35845CF1D88B9303DD20312E603AC4ED43DAC5959CF9FD03871D690D86AC9311 ====

Содержание индексной карты (.CUE)

CD1

REM GENRE Klassik
REM DATE 2013
REM DISCID 1E0BE003
REM COMMENT "ExactAudioCopy v1.0b3"
CATALOG 0028947914808
PERFORMER "Hélène Grimaud; Andris Nelsons; Symphonieorchester des Bayerischen Rundfunks"
TITLE "Brahm Piano Concertos (CD1)"
FILE "Hélène Grimaud; Andris Nelsons; Symphonieorchester des Bayerischen Rundfunks - Brahm Piano Concertos (CD1).flac" WAVE
TRACK 01 AUDIO
TITLE "Piano Concerto #1 op. 15 - I. Maestoso - Poco più moderato"
PERFORMER "Hélène Grimaud; Andris Nelsons; Symphonieorchester des Bayerischen Rundfunks"
ISRC DEN961204591
INDEX 01 00:00:00
TRACK 02 AUDIO
TITLE "II. Adagio"
PERFORMER "Hélène Grimaud; Andris Nelsons; Symphonieorchester des Bayerischen Rundfunks"
ISRC DEN961204592
INDEX 01 23:50:56
TRACK 03 AUDIO
TITLE "III. Rondo. Allegor non troppo"
PERFORMER "Hélène Grimaud; Andris Nelsons; Symphonieorchester des Bayerischen Rundfunks"
ISRC DEN961204593
INDEX 01 38:13:34

CD2

REM GENRE Klassik
REM DATE 2013
REM DISCID 320BCA04
REM COMMENT "ExactAudioCopy v1.0b3"
CATALOG 0028947914815
PERFORMER "Hélène Grimaud; Andris Nelsons; Vienna Philharmonic Orchestra"
TITLE "Brahms Piano Concertos"
FILE "Hélène Grimaud; Andris Nelsons; Vienna Philharmonic Orchestra - Brahms Piano Concertos.flac" WAVE
TRACK 01 AUDIO
TITLE "Piano Concerto #2 B-dur op. 83 - I. Allegro non troppo"
PERFORMER "Hélène Grimaud; Andris Nelsons; Vienna Philharmonic Orchestra"
ISRC DEN961204601
INDEX 01 00:00:00
TRACK 02 AUDIO
TITLE "II. Allegro appassionato"
PERFORMER "Hélène Grimaud; Andris Nelsons; Vienna Philharmonic Orchestra"
ISRC DEN961204602
INDEX 01 18:51:43
TRACK 03 AUDIO
TITLE "III. Andante - Più adagio"
PERFORMER "Hélène Grimaud; Andris Nelsons; Vienna Philharmonic Orchestra"
ISRC DEN961204603
INDEX 01 28:17:00
TRACK 04 AUDIO
TITLE "IV. Allegretto grazioso - Un poco più presto"
PERFORMER "Hélène Grimaud; Andris Nelsons; Vienna Philharmonic Orchestra"
ISRC DEN961204604
INDEX 01 41:01:08
[teatrix.ru].t17901.torrent 
Торрент: Зарегистрирован [ 2016-03-17 00:47 ] · C8738531E9652369C3CE6B7B57AF4F5727FBBAD5

Скачать .torrent

Скачать

16 KB

Статус: проверено
Скачан: 0 раз
Размер: 388 MB
terms.php



Быстрый ответ

Имя:

      
Для отправки сообщений необходимо включить JavaScript
Показать сообщения:    

Текущее время: 08-Дек 03:13

Часовой пояс: UTC + 3


Вы можете начинать темы
Вы можете отвечать на сообщения
Вы не можете редактировать свои сообщения
Вы не можете удалять свои сообщения
Вы не можете голосовать в опросах
Вы не можете прикреплять файлы к сообщениям
Вы можете скачивать файлы