(Classical / Piano Concerto) Антон Рубинштейн - Фантазия, Op. 84 • Концертино (Концертштюк), Op. 113 / Anton Rubinstein - Fantaisie • Concertstuck (Joseph Banowetz, Oliver Dohnanyi, 1989) - 1990, FLAC (image+.cue) lossless


Статистика раздачи [Обновить пиров]
Размер:  283 MB   |    Зарегистрирован:  8 месяцев 18 дней   |    Скачан:  0 раз

Полного источника не было: Никогда

 
   
 
 
 

[Цитировать]

Anton Rubinstein | Антон Рубинштейн
(1829–1894)



Фантазия и Концертино для фортепиано с оркестром
Fantaisie et Concertstück pour piano et orchestre


Joseph Banowetz piano
Symfonický orchester Slovenského rozhlasu
Oliver Dohnányi conductor


Жанр: Classical / Piano Concerto
Дата и записи: Concert Hall of the Slovak Radio, Bratislava, 10–14 October 1989
Формат записи: DDD, Stereo
Год издания диска: 1990
Издатель (лейбл): Marco Polo
Номер по каталогу: 8.223190
Аудиокодек: FLAC
Тип рипа: image+.cue
Битрейт аудио: lossless
Продолжительность: 1:02:59
Наличие сканов в содержимом раздачи: да
Источник: блог OdeonMusic


Tracklist / Треклист
Fantaisie, Op. 84 - 38:57
Allegro moderato - 11:38
  • Moderato - 6:06
  • Moderato assai - 10:43
  • Allegro - 10:30
    Concertstück, Op. 113 - 24:02
    Moderato assai - 8:34
  • Con moto moderato - 13:57
  • Allegro vivace - 1:31

    -

    EAC log / Отчёт EAC

    Exact Audio Copy V1.0 beta 3 from 29. August 2011
    EAC extraction logfile from 7. November 2012, 21:15
    Joseph Banowetz / A.Rubinstein – Fantaisie & Concertstück for Piano and Orchestra – Banowetz
    Used drive : TSSTcorpCDDVDW SH-222BB Adapter: 2 ID: 1
    Read mode : Secure
    Utilize accurate stream : Yes
    Defeat audio cache : Yes
    Make use of C2 pointers : No
    Read offset correction : 6
    Overread into Lead-In and Lead-Out : No
    Fill up missing offset samples with silence : Yes
    Delete leading and trailing silent blocks : No
    Null samples used in CRC calculations : Yes
    Used interface : Native Win32 interface for Win NT & 2000
    Used output format : User Defined Encoder
    Selected bitrate : 1024 kBit/s
    Quality : High
    Add ID3 tag : No
    Command line compressor : C:\Program Files\Exact Audio Copy\Flac\flac.exe
    Additional command line options : -8 -V -T "TITLE=%title%" -T "ARTIST=%artist%" -T "ALBUMARTIST=%albumartist%" -T "ALBUM=%albumtitle%" -T "DATE=%year%" -T "TRACKNUMBER=%tracknr%" -T "TRACKTOTAL=%numtracks%" -T "GENRE=%genre%" -T "COMMENT=%comment%" -T "PERFORMER=%albuminterpret%" -T "COMPOSER=%composer%" %source% -o %dest%
    TOC of the extracted CD
    Track | Start | Length | Start sector | End sector
    ---------------------------------------------------------
    1 | 0:00.00 | 11:38.10 | 0 | 52359
    2 | 11:38.10 | 6:06.15 | 52360 | 79824
    3 | 17:44.25 | 10:42.47 | 79825 | 128021
    4 | 28:26.72 | 10:30.03 | 128022 | 175274
    5 | 38:57.00 | 8:33.47 | 175275 | 213796
    6 | 47:30.47 | 13:57.13 | 213797 | 276584
    7 | 61:27.60 | 1:31.15 | 276585 | 283424
    Range status and errors
    Selected range
    Filename G:\Ripped general\[1631] A.Rubinstein – Fantaisie & Concertstück for Piano and Orchestra – Banowetz\A.Rubinstein – Fantaisie & Concertstück for Piano and Orchestra – Banowetz.wav
    Peak level 97.7 %
    Extraction speed 4.7 X
    Range quality 100.0 %
    Test CRC A4845623
    Copy CRC A4845623
    Copy OK
    No errors occurred
    AccurateRip summary
    Track 1 accurately ripped (confidence 1) [A411B426] (AR v1)
    Track 2 accurately ripped (confidence 1) [58AA83F8] (AR v1)
    Track 3 accurately ripped (confidence 1) [9206EEB6] (AR v1)
    Track 4 accurately ripped (confidence 1) [70CB8874] (AR v1)
    Track 5 accurately ripped (confidence 1) [2D5C5F0F] (AR v1)
    Track 6 accurately ripped (confidence 1) [DA76BA86] (AR v1)
    Track 7 accurately ripped (confidence 1) [14423418] (AR v1)
    All tracks accurately ripped
    End of status report

    auCDtect Task Manager log / Отчёт auCDtect Task Manager

    -----------------------
    DON'T MODIFY THIS FILE
    -----------------------
    PERFORMER: auCDtect Task Manager, ver. 1.5.1RC3 build 1.5.1.4
    Copyright (c) 2008-2010 y-soft. All rights reserved
    ANALYZER: auCDtect: CD records authenticity detector, version 0.8.2
    Copyright (c) 2004 Oleg Berngardt. All rights reserved.
    Copyright (c) 2004 Alexander Djourik. All rights reserved.
    FILE: Rubinstein. Fantaisie, Konzertstueck (Banowetz, O. von Dohnanyi).flac
    Size: 285921978 Hash: 0FDFEBD85A75F4A940E187A8A598D0FD Accuracy: -m0
    Conclusion: CDDA 99%
    Signature: 90555D52011D0C1AFC1C3B98699694CF9419E649

    CUETools log / Отчёт CUETools

    [CUETools log; Date: 29.11.2013 08:24:46; Version: 2.1.4]
    [AccurateRip ID: 001273c9-006e26f8-620ec307] found.
    Track [ CRC | V2 ] Status
    01 [a411b426|a8b24337] (0+2/2) Accurately ripped
    02 [58aa83f8|d19ba8fb] (0+2/2) Accurately ripped
    03 [9206eeb6|d3a2b8bc] (0+2/2) Accurately ripped
    04 [70cb8874|3276699e] (0+2/2) Accurately ripped
    05 [2d5c5f0f|aa261afc] (0+2/2) Accurately ripped
    06 [da76ba86|65fe461b] (0+2/2) Accurately ripped
    07 [14423418|cc7c3b80] (0+2/2) Accurately ripped
    Track Peak [ CRC32 ] [W/O NULL] [ LOG ]
    -- 97,7 [A4845623] [74076904] CRC32
    01 97,7 [4CF9A647] [A360F0AF]
    02 91,2 [FFEC9E37] [A66ACD2C]
    03 78,3 [339663F9] [5FB922D6]
    04 97,7 [F9FF15A8] [A9666F23]
    05 78,8 [3677DDD3] [D6C2ABEF]
    06 97,7 [D09E9839] [6E197701]
    07 97,7 [338022C9] [C2C6D621]

    CUE sheet

    TITLE "Anton Rubinstein: Fantaisie • Concertstück"
    PERFORMER "Joseph Banowetz"
    REM GENRE Classical
    REM DISCID 620EC307
    REM COMMENT "ExactAudioCopy v1.0b3"
    FILE "Rubinstein, Anton. Fantaisie, Concertstueck (Banowetz, O. von Dohnanyi).flac" WAVE
    TRACK 01 AUDIO
    TITLE "Fantaisie, Op. 84: Allegro moderato"
    PERFORMER "Joseph Banowetz, Symfonický orchester Slovenského rozhlasu (Bratislava). Oliver von Dohnányi, conductor"
    REM DATE 1989
    FLAGS PRE
    INDEX 01 00:00:00
    TRACK 02 AUDIO
    TITLE "Fantaisie, Op. 84: Moderato"
    PERFORMER "Joseph Banowetz, Symfonický orchester Slovenského rozhlasu (Bratislava). Oliver von Dohnányi, conductor"
    REM DATE 1989
    FLAGS PRE
    INDEX 01 11:38:10
    TRACK 03 AUDIO
    TITLE "Fantaisie, Op. 84: Moderato assai"
    PERFORMER "Joseph Banowetz, Symfonický orchester Slovenského rozhlasu (Bratislava). Oliver von Dohnányi, conductor"
    REM DATE 1989
    FLAGS PRE
    INDEX 01 17:44:25
    TRACK 04 AUDIO
    TITLE "Fantaisie, Op. 84: Allegro"
    PERFORMER "Joseph Banowetz, Symfonický orchester Slovenského rozhlasu (Bratislava). Oliver von Dohnányi, conductor"
    REM DATE 1989
    FLAGS PRE
    INDEX 01 28:26:72
    TRACK 05 AUDIO
    TITLE "Concertstück, Op. 113: Moderato assai"
    PERFORMER "Joseph Banowetz, Symfonický orchester Slovenského rozhlasu (Bratislava). Oliver von Dohnányi, conductor"
    REM DATE 1989
    FLAGS PRE
    INDEX 00 38:46:00
    INDEX 01 38:57:00
    TRACK 06 AUDIO
    TITLE "Concertstück, Op. 113: Con moto moderato"
    PERFORMER "Joseph Banowetz, Symfonický orchester Slovenského rozhlasu (Bratislava). Oliver von Dohnányi, conductor"
    REM DATE 1989
    FLAGS PRE
    INDEX 01 47:30:47
    TRACK 07 AUDIO
    TITLE "Concertstück, Op. 113: Allegro vivace"
    PERFORMER "Joseph Banowetz, Symfonický orchester Slovenského rozhlasu (Bratislava). Oliver von Dohnányi, conductor"
    REM DATE 1989
    FLAGS PRE
    INDEX 01 61:27:60
    -
    Антон Рубинштейн — Фортепианные концерты, Русское каприччио (Joseph Banowetz)Все мои раздачи / All my releases
    [teatrix.ru].t17902.torrent 
    Торрент: Зарегистрирован [ 2016-03-17 00:47 ] · 5943C93EF61E72AC20E577E6C853BF6E15ECB9BC

    Скачать .torrent

    Скачать

    13 KB

    Статус: проверено
    Скачан: 0 раз
    Размер: 283 MB
    terms.php



  • Быстрый ответ

    Имя:

          
    Для отправки сообщений необходимо включить JavaScript
    Показать сообщения:    

    Текущее время: 04-Дек 17:13

    Часовой пояс: UTC + 3


    Вы можете начинать темы
    Вы можете отвечать на сообщения
    Вы не можете редактировать свои сообщения
    Вы не можете удалять свои сообщения
    Вы не можете голосовать в опросах
    Вы не можете прикреплять файлы к сообщениям
    Вы можете скачивать файлы