(Classical, Baroque) Charpentier - Le Malade imaginaire (William Christie, Les Arts Florissants; Zanetti, Brua, Rime, Crook, Gardeil, Correas, Visse, Tretout) - 1990, FLAC (image+.cue) lossless


 

[Цитировать]

Charpentier - Le Malade imaginaire (William Christie, Les Arts Florissants; Zanetti, Brua, Rime, Crook, Gardeil, Correas, Visse, Tretout)
Жанр: Classical, Baroque
Год издания диска: 1990
Издатель (лейбл): Harmonia Mundi
Номер по каталогу: HMC 901336
Аудиокодек: FLAC
Тип рипа: image+.cue
Битрейт аудио: lossless
Продолжительность: 78'59
Источник: собственный рип
Наличие сканов в содержимом раздачи: да
Треклист:
01. Prologue. Ouverture
02. Églogue en musique et en danses. Flore «Quittez, quittez vos troupeaux»
03. «Ah! quelle douce nouvelle»
04. Autre Entrée de Ballet
05. Flore «De vos flûtes bocagères»
06. Combat. Air de violon
07. Pan «Laissez, laissez Bergers»
08. Premier intermède. Spacamond «Notte e di»
09. Une vieille «Zerbinetti»
10. Polichinelle “O amour, amour”
11. Ballet. Loure. Air des archers
12. Petit Opéra impromptu
13. Deuxiè Intermède. Ouverture
14. Quatre femmes mores
15. Entré de ballet. Premier Air des Mores. Second Air des Mores. Canaries
16. Troisième Intermède. Ouverture
17. Cérémonie burlesque d’un homme qu’on fait médecin
18. Air des révérences. Bachelierus. Chirurgicus
Исполнители:
Flore - Monique Zanetti
Daphné - Claire Brua
Climène - Noémi Rime
Tircis / Spacamond - Howard Crook
Dorilas - Jean-François Gardeil
Pan - Jérôme Correas
La Vieille - Dominique Visse
Polichinelle - Alain Trétout
Les Arts Florissants
Conductor - William Christie

LOG EAC

Exact Audio Copy V1.0 beta 3 from 29. August 2011
EAC extraction logfile from 27. November 2013, 14:09
William Christie - Les Arts Florissants / Charpentier - Le Malade imaginaire
Used drive : PIONEER DVD-RW DVR-218L Adapter: 0 ID: 1
Read mode : Secure
Utilize accurate stream : Yes
Defeat audio cache : Yes
Make use of C2 pointers : No
Read offset correction : 6
Overread into Lead-In and Lead-Out : No
Fill up missing offset samples with silence : Yes
Delete leading and trailing silent blocks : No
Null samples used in CRC calculations : Yes
Used interface : Native Win32 interface for Win NT & 2000
Used output format : User Defined Encoder
Selected bitrate : 128 kBit/s
Quality : High
Add ID3 tag : No
Command line compressor : C:\Program Files\Exact Audio Copy\Flac\flac.exe
Additional command line options : -V -8 -T "Date=%year%" -T "Genre=%genre%" %source%
TOC of the extracted CD
Track | Start | Length | Start sector | End sector
---------------------------------------------------------
1 | 0:00.33 | 1:45.40 | 33 | 7947
2 | 1:45.73 | 4:25.57 | 7948 | 27879
3 | 6:11.55 | 1:51.08 | 27880 | 36212
4 | 8:02.63 | 1:11.55 | 36213 | 41592
5 | 9:14.43 | 2:26.20 | 41593 | 52562
6 | 11:40.63 | 5:44.42 | 52563 | 78404
7 | 17:25.30 | 7:09.33 | 78405 | 110612
8 | 24:34.63 | 4:40.30 | 110613 | 131642
9 | 29:15.18 | 3:13.35 | 131643 | 146152
10 | 32:28.53 | 12:01.00 | 146153 | 200227
11 | 44:29.53 | 0:56.52 | 200228 | 204479
12 | 45:26.30 | 5:53.23 | 204480 | 230977
13 | 51:19.53 | 1:24.45 | 230978 | 237322
14 | 52:44.23 | 6:46.35 | 237323 | 267807
15 | 59:30.58 | 2:17.00 | 267808 | 278082
16 | 61:47.58 | 3:10.20 | 278083 | 292352
17 | 64:58.03 | 8:32.05 | 292353 | 330757
18 | 73:30.08 | 5:27.15 | 330758 | 355297
Range status and errors
Selected range
Filename C:\Charpentier - Le Malade imaginaire.wav
Peak level 93.9 %
Extraction speed 2.2 X
Range quality 99.9 %
Test CRC 682C855C
Copy CRC 682C855C
Copy OK
No errors occurred
End of status report
==== Log checksum F04BB1EC6B67BF1B7DB0056118C2554E6F62A657BD15191E5DADA813F14EA326 ====

Содержание индексной карты (.CUE)

REM GENRE Classical
REM DATE 1990
REM DISCID FB128112
REM COMMENT "ExactAudioCopy v1.0b3"
PERFORMER "William Christie - Les Arts Florissants"
TITLE "Charpentier - Le Malade imaginaire"
FILE "Charpentier - Le Malade imaginaire.Flac" WAVE
TRACK 01 AUDIO
TITLE "Prologue. Ouverture"
PERFORMER "William Christie - Les Arts Florissants"
INDEX 00 00:00:00
INDEX 01 00:00:33
TRACK 02 AUDIO
TITLE "Eglogue. Flore: Quittez, quittez vos troupeaux"
PERFORMER "William Christie - Les Arts Florissants"
INDEX 01 01:45:73
TRACK 03 AUDIO
TITLE "Ah! quelle douce nouvelle !"
PERFORMER "William Christie - Les Arts Florissants"
INDEX 01 06:11:55
TRACK 04 AUDIO
TITLE "Autre Entree de Ballet"
PERFORMER "William Christie - Les Arts Florissants"
INDEX 01 08:02:63
TRACK 05 AUDIO
TITLE "Flore: De vos flutes bocageres"
PERFORMER "William Christie - Les Arts Florissants"
INDEX 01 09:14:43
TRACK 06 AUDIO
TITLE "Combat. Air de violons"
PERFORMER "William Christie - Les Arts Florissants"
INDEX 01 11:40:63
TRACK 07 AUDIO
TITLE "Pan: Laissez, laissez bergers"
PERFORMER "William Christie - Les Arts Florissants"
INDEX 01 17:25:30
TRACK 08 AUDIO
TITLE "Premier intermede. Spacamond: Notte e di"
PERFORMER "William Christie - Les Arts Florissants"
INDEX 01 24:34:63
TRACK 09 AUDIO
TITLE "Une vieille: Zerbinetti"
PERFORMER "William Christie - Les Arts Florissants"
INDEX 01 29:15:18
TRACK 10 AUDIO
TITLE "Polichinelle: O amour, amour"
PERFORMER "William Christie - Les Arts Florissants"
INDEX 01 32:28:53
TRACK 11 AUDIO
TITLE "Ballet. Loure. Air des Arches"
PERFORMER "William Christie - Les Arts Florissants"
INDEX 01 44:29:53
TRACK 12 AUDIO
TITLE "Petit opera impromptu"
PERFORMER "William Christie - Les Arts Florissants"
INDEX 01 45:26:30
TRACK 13 AUDIO
TITLE "Deuxieme intermede. Ouverture"
PERFORMER "William Christie - Les Arts Florissants"
INDEX 01 51:19:53
TRACK 14 AUDIO
TITLE "Quatre femmes mores"
PERFORMER "William Christie - Les Arts Florissants"
INDEX 01 52:44:23
TRACK 15 AUDIO
TITLE "Entree de ballet. Airs des Mores. Canaries"
PERFORMER "William Christie - Les Arts Florissants"
INDEX 01 59:30:58
TRACK 16 AUDIO
TITLE "Troisieme intermede. Ouverture"
PERFORMER "William Christie - Les Arts Florissants"
INDEX 01 61:47:58
TRACK 17 AUDIO
TITLE "Ceremonie burlesque d’un homme qu’on fait medecin"
PERFORMER "William Christie - Les Arts Florissants"
INDEX 01 64:58:03
TRACK 18 AUDIO
TITLE "Air des reverences. Bachelierus. Chirurgicus"
PERFORMER "William Christie - Les Arts Florissants"
INDEX 01 73:30:08
Доп. информация: Марк-Антуан Шарпантье (фр. Marc-Antoine Charpentier; 1643, Париж — 24 февраля 1704, Париж) — французский композитор, певец.
Родился в Париже, отец — Луи Шарпантье, по профессии «maître écrivain» (фр. переписчик официальных документов). Когда Марк-Антуан начал заниматься музыкой, неизвестно.
В начале 1660-х Шарпантье едет в Италию изучать живопись, но вместо этого на три года поступает в учение к Джакомо Кариссими, самому знаменитому римскому композитору той эпохи. В конце 1660-х он возвращается в Париж и поступает на службу к Мари де Лоррен, принцессе Жуанвильской, герцогине де Гиз. Мадмуазель де Гиз обожает музыку, в ее доме постоянно проводятся музыкальные салоны, но Гизы находятся в оппозиции к королевскому двору, и жизнь Шарпантье протекает вдали от музыкального бомонда той эпохи... (Вики)
mp3



Показать сообщения:    

Текущее время: 07-Дек 19:24

Часовой пояс: UTC + 3


Вы не можете начинать темы
Вы не можете отвечать на сообщения
Вы не можете редактировать свои сообщения
Вы не можете удалять свои сообщения
Вы не можете голосовать в опросах
Вы не можете прикреплять файлы к сообщениям
Вы не можете скачивать файлы