(Concerto) Эрнест Блох - Симфония-концерт для тромбона с оркестром, Самуил Фейнберг - Концерт для фортепиано с оркестром №3 / Bloch, Feinberg - Concertos (Г.Херсонский, ГСО, В.Кожухарь, В.Бунин, БСО, Г.Черкасов) - 1995, FLAC (tracks) lossless


Статистика раздачи [Обновить пиров]
Размер:  253 MB   |    Зарегистрирован:  10 месяцев   |    Скачан:  0 раз

Полного источника не было: Никогда

 
   
 
 
 

[Цитировать]

Bloch - Symphony-Concerto for trombone & orchestra, Feinberg - Piano concerto №3 / Эрнест Блох - Симфония-концерт для тромбона с оркестром, Самуил Фейнберг - Концерт для фортепиано с оркестром № 3
Жанр: Concerto
Страна-производитель диска: USA
Год издания диска: 1995
Издатель (лейбл): Consonance
Номер по каталогу: 81-0002
Дата записи: 1988-90
Аудиокодек: FLAC
Тип рипа: tracks
Битрейт аудио: lossless
Продолжительность: 61:50
Источник: скачано с
Наличие сканов в содержимом раздачи: да
Треклист:
Эрнест Блох (1880-1959)
Symphony-Concerto for trombone & orchestra (1953-54) 17'13
01 I. Maestoso (3:20)
02 II. Agitato 9:08
02 III. Allegro deciso 4:55
Самуил Фейнберг (1890-1962)
Концерт для фортепиано с оркестром № 3 C minor (1947/51) 44'35
04 I. Grave. Allegro maestoso 18:51
05 II. Andante molto sostenuto 13:03
06 III. Animato assai 12:45
Исполнители:
Григорий Херсонский, тромбон
Государственный симфонический оркестр СССР
Владимир Кожухарь, дирижёр
1988 г.
1-3
______________
Владимир Бунин, фортепиано
Большой симфонический оркестр "Останкино"
Геннадий Черкасов, дирижёр
1990 г.
4-6

Лог создания рипа

Exact Audio Copy V1.0 beta 3 from 29. August 2011
EAC extraction logfile from 5. August 2012, 22:52
Bloch und Feinberg / Symphonie for Trombone and Orchestra - Piano Concerto No. 3
Used drive : ASUS DRW-24B1ST c Adapter: 4 ID: 0
Read mode : Secure
Utilize accurate stream : Yes
Defeat audio cache : Yes
Make use of C2 pointers : No
Read offset correction : 6
Overread into Lead-In and Lead-Out : No
Fill up missing offset samples with silence : Yes
Delete leading and trailing silent blocks : No
Null samples used in CRC calculations : Yes
Used interface : Installed external ASPI interface
Gap handling : Appended to previous track
Used output format : User Defined Encoder
Selected bitrate : 128 kBit/s
Quality : High
Add ID3 tag : No
Command line compressor : C:\Program Files (x86)\Exact Audio Copy\Flac\flac.exe
Additional command line options : -8 -V -T "ARTIST=%artist%" -T "TITLE=%title%" -T "ALBUM=%albumtitle%" -T "DATE=%year%" -T "TRACKNUMBER=%tracknr%" -T "GENRE=%genre%" -T "PERFORMER=%albuminterpret%" -T "COMPOSER=%composer%" %haslyrics%--tag-from-file=LYRICS="%lyricsfile%"%haslyrics% -T "ALBUMARTIST=%albumartist%" -T "DISCNUMBER=%cdnumber%" -T "TOTALDISCS=%totalcds%" -T "TOTALTRACKS=%numtracks%" -T "COMMENT=EAC V1.0 beta 2, Secure Mode, Test & Copy, AccurateRip, FLAC -8" %source% -o %dest%
TOC of the extracted CD
Track | Start | Length | Start sector | End sector
---------------------------------------------------------
1 | 0:00.00 | 3:20.12 | 0 | 15011
2 | 3:20.12 | 9:08.08 | 15012 | 56119
3 | 12:28.20 | 4:54.55 | 56120 | 78224
4 | 17:23.00 | 18:51.27 | 78225 | 163076
5 | 36:14.27 | 13:02.65 | 163077 | 221791
6 | 49:17.17 | 12:44.58 | 221792 | 279149
Track 1
Filename Z:\home\stan\var\rip\Samuel Feinberg - Piano Concerto in C minor (1994) [FLAC]\01 - Ernest Bloch - Symphonie for Trombone and Orchestra - Maestoso.wav
Pre-gap length 0:00:02.00
Peak level 46.5 %
Extraction speed 4.2 X
Track quality 99.9 %
Test CRC DC895A4B
Copy CRC DC895A4B
Accurately ripped (confidence 2) [C02EB5B2] (AR v1)
Copy OK
Track 2
Filename Z:\home\stan\var\rip\Samuel Feinberg - Piano Concerto in C minor (1994) [FLAC]\02 - Ernest Bloch - Symphonie for Trombone and Orchestra - Agitato.wav
Pre-gap length 0:00:01.82
Peak level 79.7 %
Extraction speed 6.1 X
Track quality 99.9 %
Test CRC B9806201
Copy CRC B9806201
Accurately ripped (confidence 2) [B4A2E2CC] (AR v1)
Copy OK
Track 3
Filename Z:\home\stan\var\rip\Samuel Feinberg - Piano Concerto in C minor (1994) [FLAC]\03 - Ernest Bloch - Symphonie for Trombone and Orchestra - Allegro deciso.wav
Pre-gap length 0:00:02.06
Peak level 68.7 %
Extraction speed 7.2 X
Track quality 100.0 %
Test CRC 9C442B2B
Copy CRC 9C442B2B
Accurately ripped (confidence 2) [B6E1B382] (AR v1)
Copy OK
Track 4
Filename Z:\home\stan\var\rip\Samuel Feinberg - Piano Concerto in C minor (1994) [FLAC]\04 - Samuel Feinberg - Piano Concerto No. 3 in C Minor - Grave Allegro maestoso.wav
Pre-gap length 0:00:05.66
Peak level 86.8 %
Extraction speed 9.2 X
Track quality 100.0 %
Test CRC 3A6A7888
Copy CRC 3A6A7888
Accurately ripped (confidence 2) [BFC2E7ED] (AR v1)
Copy OK
Track 5
Filename Z:\home\stan\var\rip\Samuel Feinberg - Piano Concerto in C minor (1994) [FLAC]\05 - Samuel Feinberg - Piano Concerto No. 3 in C Minor - Andante molto sostenuto.wav
Pre-gap length 0:00:03.16
Peak level 74.2 %
Extraction speed 9.9 X
Track quality 99.9 %
Test CRC EF46FFD7
Copy CRC EF46FFD7
Accurately ripped (confidence 2) [A2C1105A] (AR v1)
Copy OK
Track 6
Filename Z:\home\stan\var\rip\Samuel Feinberg - Piano Concerto in C minor (1994) [FLAC]\06 - Samuel Feinberg - Piano Concerto No. 3 in C Minor - Animato assai.wav
Pre-gap length 0:00:02.40
Peak level 86.5 %
Extraction speed 11.6 X
Track quality 100.0 %
Test CRC 9E186F7C
Copy CRC 9E186F7C
Accurately ripped (confidence 2) [287D6BB2] (AR v1)
Copy OK
All tracks accurately ripped
No errors occurred
End of status report
==== Log checksum 4FF1D7BFAB362E772599E7735A1006FBDBF486EBA278C99D23F4F488A04AC5B4 ====
Доп. информация: Симфония-концерт для тромбона с оркестром, написанная Эрнестом Блохом в 1953-54 годах, когда композитор был уже болен, возвращает нас в мир времён "Еврейского цикла" (Псалмов, симфонии "Израиль"), его языка, его страстности и остроты. Кроме того, этот концерт без всяких скидок, является едва ли не лучшим произведением 20 века для тромбона с оркестром.
Самуил Фейнберг известен в первую очередь как виднейший представитель русской фортепианной школы. Композиторское творчество Фейнберга теперь почти забыто. Ещё в 20-40е годы имя Фейнберга-композитора было неотделимо от имен Мясковского, Шебалина, Александрова, Гедике. Третий фортепианный концерт (1947/51) - образец его позднего довольно самобытного стиля, который он нашел, идя по пути углубления, усложнения традиций Скрябина, Метнера, Рахманинова, Прокофьева, открывая новые звуковые и виртуозные возможности фортепиано.

О сочинениях

В тромбоновой симфонии Блоха три части. Первая - Maestoso - открывается страстным оркестровым воззванием. Затем вступает певучее соло тромбона (в этой еврейской теме явно слышны восточные отголоски - мне почему-то вспомнился "Антар" Римского-Корсакова"). Созерцательное настроение, несмотря на бурное вступление, преобладает на протяжении всей части, лишь в оркестре слышны тревожные "призывные" интонации. Вторая часть - Agitato - начинается с воинственного ритма и трубных фанфар, которым вторит тромбон. Эта "ажитация" приводит к мощной кульминации и несколько задумчивому разделу. Но интенсивность снова начинает расти, что приводит ко второй кульминации. Тромбон остается в одиночестве "медитативного настроения" на фоне тихо звучащих струнных и челесты. Третья часть - Allegro Deciso - начинается с громких и довольно бодрых призывных фраз духовых инструментов. Струнные отвечают им, тромбон присоединяется к диалогу. Звучность снова уменьшается. Приглушенные трубы и гобой вновь играют уже знакомую тему из вступления. Тромбон непродолжительное время медитирует и музыка тихо замирает "удаляясь" под мерные удары литавр.
Скрябин послужил для Самуила Фейнберга неким первоначальным импульсом к формированию своего, особого композиторского почерка. Но первоначальный, скрябинский "порыв" у него изначально оказался отягощен довольно изощренной полифонией. В силу логики полифонического развития гармонии уже больше не летят призывно, по-скрябински, - ввысь, - а, скорее, "пружинят", оставаясь на прочном, земном основании (как затейливая фактура баховских хоральных прелюдий оказывается привязана к мелодии хорала). Это создает совершенно другой тип экспрессии, более близкой, например, к Мясковскому. В 30х приходит увлечение классической экономностью выразительных средств, камерность высказывания, появляется кантилена, отдалённо сопоставимая с той, что мы слышим у другого композитора, также любимого Фейнбергом - Николая Метнера. Его третий фортепианный концерт - русская музыка, одновременно близкая к тому, что именуется "большим советским стилем" - композитор тяготеет к масштабному, драматическому развитию, пышной фактуре. И вместе с тем, даже неискушённому слушателю заметна некая угловатость, "некомфортность" его музыки, очевидные странности в виде барочного контрапункта, органно-клавирного звучания в сочетании с философской умудрённостью. Вскоре после триумфального успеха сочинений Фейнберг, как и другие музыканты его круга, был обвинен в формализме.
[teatrix.ru].t17905.torrent 
Торрент: Зарегистрирован [ 2016-03-17 00:47 ] · 5CAC3216D94064492E0A3DB00B84A1DC7F4BED48

Скачать .torrent

Скачать

21 KB

Статус: проверено
Скачан: 0 раз
Размер: 253 MB
terms.php



Быстрый ответ

Имя:

      
Для отправки сообщений необходимо включить JavaScript
Показать сообщения:    

Текущее время: 18-Янв 00:23

Часовой пояс: UTC + 3


Вы можете начинать темы
Вы можете отвечать на сообщения
Вы не можете редактировать свои сообщения
Вы не можете удалять свои сообщения
Вы не можете голосовать в опросах
Вы не можете прикреплять файлы к сообщениям
Вы можете скачивать файлы