(Classical / Piano / Flute / Harp / Horn / Concerto) Wolfgang Amadeus Mozart - Konzerte fur: 2 Klaviere • Flote und Harfe • Horn Nr. 3 (Jos van Immerseel, Yoko Kaneko, Ulrich Hubner, Frank Theuns, Marjan de Haer) - 2006, FLAC (tracks+.cue) lossless


Статистика раздачи [Обновить пиров]
Размер:  259 MB   |    Зарегистрирован:  8 месяцев 17 дней   |    Скачан:  0 раз

Полного источника не было: Никогда

 
   
 
 
 

[Цитировать]

Wolfgang Amadeus Mozart | Вольфганг Амадей Моцарт
(1756–1791)



Konzert für 2 Klaviere | Konzert für Flöte und Harfe | Konzert für Horn Nr. 3
Концерт для 2-х фортепиано | Концерт для флейты и арфы | Концерт для валторны № 3


Jos van Immerseel, Yoko Kaneko pianosUlrich Hübner horn
Frank Theuns fluteMarjan de Haer harp
Orchestra «Anima Eterna» (Brugge)
Jos van Immerseel conductor


Жанр: Classical / Piano / Flute / Harp / Horn / Concerto
Дата и место записи: Concertgebouw Brugge, 27 February & 1 March 2005
Формат записи: DDD, Stereo
Год издания диска: 2006
Издатель (лейбл): Zigzag
Номер по каталогу: ZZT060201
Аудиокодек: FLAC
Тип рипа: tracks+.cue
Битрейт аудио: lossless
Продолжительность: 1:07:09
Наличие сканов в содержимом раздачи: да (отсутствуют страницы буклета 20, 21)
Источник: AvaxHome


Tracklist / Треклист
Klavierkonzert Nr. 10 Es-dur (für zwei Klaviere), KV 365 - 24:27
I. Allegro - 10:00
  • II. Andante - 7:17
  • III. Rondeau: Allegro - 7:10
    Konzert für Flöte und Harfe mit Orchester C-dur, KV 299 - 27:35
    I. Allegro - 9:59
  • II. Andantino - 7:32
  • III. Rondeau: Allegro - 10:03
    Konzert für Horn und Orchester Nr. 3 Es-dur, KV 447 - 15:07
    I. Allegro - 7:21
  • II. Romanza: Larghetto - 4:07
  • III. Allegro - 3:40

    -

    EAC log / Отчёт EAC

    Exact Audio Copy V0.99 prebeta 4 from 23. January 2008
    EAC extraction logfile from 30. June 2010, 20:16
    Jos van Immerseel & Anima Eterna / Mozart-Konzert
    Used drive : PLEXTOR DVDR PX-755A Adapter: 1 ID: 1
    Read mode : Secure
    Utilize accurate stream : Yes
    Defeat audio cache : Yes
    Make use of C2 pointers : No
    Read offset correction : 30
    Overread into Lead-In and Lead-Out : No
    Fill up missing offset samples with silence : Yes
    Delete leading and trailing silent blocks : No
    Null samples used in CRC calculations : Yes
    Used interface : Installed external ASPI interface
    Gap handling : Appended to previous track
    Used output format : User Defined Encoder
    Selected bitrate : 896 kBit/s
    Quality : High
    Add ID3 tag : No
    Command line compressor : C:\Program Files\Exact Audio Copy\Flac\flac.exe
    Additional command line options : -8 -V -T "ARTIST=%a" -T "TITLE=%t" -T "ALBUM=%g" -T "DATE=%y" -T "TRACKNUMBER=%n" -T "TOTALTRACKS=%x" -T "GENRE=%m" -T "ALBUM ARTIST=%v" -T "ALBUMARTIST=%v" -T "COMMENT=EAC V0.99 prebeta 4, Secure Mode, Test & Copy, Accurat
    TOC of the extracted CD
    Track | Start | Length | Start sector | End sector
    ---------------------------------------------------------
    1 | 0:00.00 | 10:00.00 | 0 | 44999
    2 | 10:00.00 | 7:16.51 | 45000 | 77750
    3 | 17:16.51 | 7:10.24 | 77751 | 110024
    4 | 24:27.00 | 9:59.36 | 110025 | 154985
    5 | 34:26.36 | 7:32.15 | 154986 | 188900
    6 | 41:58.51 | 10:03.24 | 188901 | 234149
    7 | 52:02.00 | 7:20.62 | 234150 | 267211
    8 | 59:22.62 | 4:06.43 | 267212 | 285704
    9 | 63:29.30 | 3:39.45 | 285705 | 302174
    Track 1
    Filename Z:\CD 3 - Mozart - Konzerte - Jos van Immerseel & Anima Eterna\01 - Concerto No. 10 in E-Flat Major for Two FortePianos, K. 365- I. Allegro.wav
    Pre-gap length 0:00:02.00
    Peak level 96.3 %
    Track quality 100.0 %
    Test CRC C37F95B5
    Copy CRC C37F95B5
    Accurately ripped (confidence 9) [5A898D34]
    Copy OK
    Track 2
    Filename Z:\CD 3 - Mozart - Konzerte - Jos van Immerseel & Anima Eterna\02 - Concerto No. 10 in E-Flat Major for Two FortePianos, K. 365- II. Andante.wav
    Pre-gap length 0:00:03.88
    Peak level 36.1 %
    Track quality 99.9 %
    Test CRC BAFF46BB
    Copy CRC BAFF46BB
    Accurately ripped (confidence 9) [0E64DB9C]
    Copy OK
    Track 3
    Filename Z:\CD 3 - Mozart - Konzerte - Jos van Immerseel & Anima Eterna\03 - Concerto No. 10 in E-Flat Major for Two FortePianos, K. 365- III. Rondeau.wav
    Peak level 71.3 %
    Track quality 100.0 %
    Test CRC 6735ED36
    Copy CRC 6735ED36
    Accurately ripped (confidence 9) [FD736864]
    Copy OK
    Track 4
    Filename Z:\CD 3 - Mozart - Konzerte - Jos van Immerseel & Anima Eterna\04 - Concerto in C Major for Flute and Harp, K. 299- I. Allegro.wav
    Pre-gap length 0:00:08.48
    Peak level 55.6 %
    Track quality 100.0 %
    Test CRC C48DBB06
    Copy CRC C48DBB06
    Accurately ripped (confidence 9) [CBA2BE20]
    Copy OK
    Track 5
    Filename Z:\CD 3 - Mozart - Konzerte - Jos van Immerseel & Anima Eterna\05 - Concerto in C Major for Flute and Harp, K. 299- II. Andantino.wav
    Pre-gap length 0:00:03.98
    Peak level 32.6 %
    Track quality 100.0 %
    Test CRC 8AA8C549
    Copy CRC 8AA8C549
    Accurately ripped (confidence 9) [40FDEE27]
    Copy OK
    Track 6
    Filename Z:\CD 3 - Mozart - Konzerte - Jos van Immerseel & Anima Eterna\06 - Concerto in C Major for Flute and Harp, K. 299- III. Rondeau.wav
    Peak level 53.9 %
    Track quality 100.0 %
    Test CRC EBB30A7E
    Copy CRC EBB30A7E
    Accurately ripped (confidence 9) [DD83B16F]
    Copy OK
    Track 7
    Filename Z:\CD 3 - Mozart - Konzerte - Jos van Immerseel & Anima Eterna\07 - Concerto for Horn in E-Flat Major, K. 447- I. Allegro.wav
    Pre-gap length 0:00:07.94
    Peak level 57.0 %
    Track quality 100.0 %
    Test CRC C66659F8
    Copy CRC C66659F8
    Accurately ripped (confidence 9) [94D91FBA]
    Copy OK
    Track 8
    Filename Z:\CD 3 - Mozart - Konzerte - Jos van Immerseel & Anima Eterna\08 - Concerto for Horn in E-Flat Major, K. 447- II. Romance - Larghetto.wav
    Pre-gap length 0:00:03.25
    Peak level 45.4 %
    Track quality 100.0 %
    Test CRC E18B8B95
    Copy CRC E18B8B95
    Accurately ripped (confidence 8) [1E99D8A3]
    Copy OK
    Track 9
    Filename Z:\CD 3 - Mozart - Konzerte - Jos van Immerseel & Anima Eterna\09 - Concerto for Horn in E-Flat Major, K. 447- III. Allegro.wav
    Peak level 60.7 %
    Track quality 100.0 %
    Test CRC 8C566250
    Copy CRC 8C566250
    Cannot be verified as accurate (confidence 8) [FEDBFABF], AccurateRip returned [E295D7E4]
    Copy OK
    8 track(s) accurately ripped
    1 track(s) could not be verified as accurate
    Some tracks could not be verified as accurate
    No errors occurred
    End of status report

    auCDtect Task Manager log / Отчёт auCDtect Task Manager

    -----------------------
    DON'T MODIFY THIS FILE
    -----------------------
    PERFORMER: auCDtect Task Manager, ver. 1.5.1RC3 build 1.5.1.4
    Copyright (c) 2008-2010 y-soft. All rights reserved
    ANALYZER: auCDtect: CD records authenticity detector, version 0.8.2
    Copyright (c) 2004 Oleg Berngardt. All rights reserved.
    Copyright (c) 2004 Alexander Djourik. All rights reserved.
    FILE: 09 - Konzert fuer Horn und Orchester Nr. 3 Es-dur, KV 447 - III. Allegro.flac
    Size: 14814836 Hash: 661F02EA47151DF6EB75A7E18F870F53 Accuracy: -m0
    Conclusion: CDDA 100%
    Signature: D696003254C0C76946B4A71120B396573078DFA0
    FILE: 08 - Konzert fuer Horn und Orchester Nr. 3 Es-dur, KV 447 - II. Romanza. Larghetto.flac
    Size: 15151172 Hash: 4AC02D74B04B4CBA65FD0FA0827ECA02 Accuracy: -m0
    Conclusion: CDDA 100%
    Signature: 3A8A6A0A8DEF741BF9C72170116CBD3004E39D30
    FILE: 07 - Konzert fuer Horn und Orchester Nr. 3 Es-dur, KV 447 - I. Allegro.flac
    Size: 27466815 Hash: 751DF0FC5539524B74626E85147FA930 Accuracy: -m0
    Conclusion: CDDA 100%
    Signature: AF268922EEC414AE2F1BBCEA1E59BD08287495BC
    FILE: 06 - Konzert fuer Floete und Harfe mit Orchester C-dur, KV 299 - III. Rondeau. Allegro.flac
    Size: 39974741 Hash: C838FE652377BE320BE660B6CA6407FF Accuracy: -m0
    Conclusion: CDDA 100%
    Signature: F01189FE05C6C9566676711BC6F487CB7330C46D
    FILE: 05 - Konzert fuer Floete und Harfe mit Orchester C-dur, KV 299 - II. Andantino.flac
    Size: 27489982 Hash: EE3B8B63E37F3D311C5FEFA4C5F69C3C Accuracy: -m0
    Conclusion: CDDA 99%
    Signature: C77E4E0845A7ABB47B1661FBAF8DC0DFEB2B3490
    FILE: 04 - Konzert fuer Floete und Harfe mit Orchester C-dur, KV 299 - I. Allegro.flac
    Size: 42687695 Hash: 288076C7BC8596B245B2FAE6A01AE0CA Accuracy: -m0
    Conclusion: CDDA 100%
    Signature: 8AE0FEBA4411AF8EE6A99882038A654634DE3D81
    FILE: 03 - Klavierkonzert Nr. 10 Es-dur (fuer zwei Klaviere), KV 365 - III. Rondeau. Allegro.flac
    Size: 27584126 Hash: 57967D82FAB494042DBFAEAC01B99E27 Accuracy: -m0
    Conclusion: CDDA 100%
    Signature: E0B95D6B2038D37B3BF8322A0FE402140830F72F
    FILE: 02 - Klavierkonzert Nr. 10 Es-dur (fuer zwei Klaviere), KV 365 - II. Andante.flac
    Size: 22431349 Hash: DDBC49A8CEDD20ED8A5E85B960585DD1 Accuracy: -m0
    Conclusion: CDDA 100%
    Signature: A914DBAC252E27FD9AB45B92E20E7D1C9C83E00E
    FILE: 01 - Klavierkonzert Nr. 10 Es-dur (fuer zwei Klaviere), KV 365 - I. Allegro.flac
    Size: 38964046 Hash: B10A5ABCDF823D9E21BB4EF55FA6831F Accuracy: -m0
    Conclusion: CDDA 99%
    Signature: 0B92CD8D14519F0D38031AC19D5E5E6FF3733B43

    CUETools log / Отчёт CUETools

    [CUETools log; Date: 30.11.2013 10:00:51; Version: 2.1.4]
    [AccurateRip ID: 00196b71-00b7bd3b-6c0fbd09] found.
    Track [ CRC | V2 ] Status
    01 [5a898d34|cd51da05] (13+18/34) Accurately ripped
    02 [0e64db9c|aaeca3e0] (13+18/34) Accurately ripped
    03 [fd736864|2900aa80] (13+17/33) Accurately ripped
    04 [cba2be20|c021f7e5] (13+18/34) Accurately ripped
    05 [40fdee27|ead05f5d] (13+18/34) Accurately ripped
    06 [dd83b16f|605ef0ae] (13+17/33) Accurately ripped
    07 [94d91fba|46f645d8] (13+18/34) Accurately ripped
    08 [1e99d8a3|e05810ee] (12+18/33) Accurately ripped
    09 [fedbfabf|6b43e6b6] (00+00/32) No match
    Offsetted by -36:
    01 [1fc46b2b] (00/34) No match (V2 was not tested)
    02 [c514c93b] (00/34) No match (V2 was not tested)
    03 [78862db5] (00/33) No match (V2 was not tested)
    04 [2a4d5351] (00/34) No match (V2 was not tested)
    05 [84630114] (00/34) No match (V2 was not tested)
    06 [b778ebc1] (00/33) No match (V2 was not tested)
    07 [276daebd] (00/34) No match (V2 was not tested)
    08 [d52ecd9e] (00/33) No match (V2 was not tested)
    09 [a1ec7690] (00/32) No match (V2 was not tested)
    Track Peak [ CRC32 ] [W/O NULL] [ LOG ]
    -- 96,3 [5B964D8D] [3723BB0B]
    01 96,3 [C37F95B5] [37C6B6D0] CRC32
    02 36,1 [BAFF46BB] [24335572] CRC32
    03 71,3 [6735ED36] [A225B731] CRC32
    04 55,6 [C48DBB06] [629A374A] CRC32
    05 32,6 [8AA8C549] [5D546760] CRC32
    06 53,9 [EBB30A7E] [99254C4F] CRC32
    07 57,0 [C66659F8] [3523ECC6] CRC32
    08 45,4 [E18B8B95] [EF20CFCD] CRC32
    09 60,7 [8C566250] [0ABEC0BF] CRC32

    CUE sheet

    TITLE "Wolfgang Amadeus Mozart: Konzerte"
    PERFORMER "Jos van Immerseel"
    REM GENRE Classical
    REM DISCID 6C0FBD09
    REM COMMENT "ExactAudioCopy v0.99pb4"
    FILE "01 - Klavierkonzert Nr. 10 Es-dur (fuer zwei Klaviere), KV 365 - I. Allegro.flac" WAVE
    TRACK 01 AUDIO
    TITLE "Klavierkonzert Nr. 10 Es-dur (für zwei Klaviere), KV 365: I. Allegro"
    PERFORMER "Jos van Immerseel, Yoko Kaneko, Anima Eterna. Jos van Immerseel, conductor"
    REM DATE 2005
    FLAGS DCP
    INDEX 01 00:00:00
    TRACK 02 AUDIO
    TITLE "Klavierkonzert Nr. 10 Es-dur (für zwei Klaviere), KV 365: II. Andante"
    PERFORMER "Jos van Immerseel, Yoko Kaneko, Anima Eterna. Jos van Immerseel, conductor"
    REM DATE 2005
    FLAGS DCP
    INDEX 00 09:56:09
    FILE "02 - Klavierkonzert Nr. 10 Es-dur (fuer zwei Klaviere), KV 365 - II. Andante.flac" WAVE
    INDEX 01 00:00:00
    FILE "03 - Klavierkonzert Nr. 10 Es-dur (fuer zwei Klaviere), KV 365 - III. Rondeau. Allegro.flac" WAVE
    TRACK 03 AUDIO
    TITLE "Klavierkonzert Nr. 10 Es-dur (für zwei Klaviere), KV 365: III. Rondeau: Allegro"
    PERFORMER "Jos van Immerseel, Yoko Kaneko, Anima Eterna. Jos van Immerseel, conductor"
    REM DATE 2005
    FLAGS DCP
    INDEX 01 00:00:00
    TRACK 04 AUDIO
    TITLE "Konzert für Flöte und Harfe mit Orchester C-dur, KV 299: I. Allegro"
    PERFORMER "Frank Theuns, Marjan de Haer, Anima Eterna. Jos van Immerseel, conductor"
    REM DATE 2005
    FLAGS DCP
    INDEX 00 07:01:63
    FILE "04 - Konzert fuer Floete und Harfe mit Orchester C-dur, KV 299 - I. Allegro.flac" WAVE
    INDEX 01 00:00:00
    TRACK 05 AUDIO
    TITLE "Konzert für Flöte und Harfe mit Orchester C-dur, KV 299: II. Andantino"
    PERFORMER "Frank Theuns, Marjan de Haer, Anima Eterna. Jos van Immerseel, conductor"
    REM DATE 2005
    FLAGS DCP
    INDEX 00 09:55:37
    FILE "05 - Konzert fuer Floete und Harfe mit Orchester C-dur, KV 299 - II. Andantino.flac" WAVE
    INDEX 01 00:00:00
    FILE "06 - Konzert fuer Floete und Harfe mit Orchester C-dur, KV 299 - III. Rondeau. Allegro.flac" WAVE
    TRACK 06 AUDIO
    TITLE "Konzert für Flöte und Harfe mit Orchester C-dur, KV 299: III. Rondeau: Allegro"
    PERFORMER "Frank Theuns, Marjan de Haer, Anima Eterna. Jos van Immerseel, conductor"
    REM DATE 2005
    FLAGS DCP
    INDEX 01 00:00:00
    TRACK 07 AUDIO
    TITLE "Konzert für Horn und Orchester Nr. 3 Es-dur, KV 447: I. Allegro"
    PERFORMER "Ulrich Hübner, Anima Eterna. Jos van Immerseel, conductor"
    REM DATE 2005
    FLAGS DCP
    INDEX 00 09:55:28
    FILE "07 - Konzert fuer Horn und Orchester Nr. 3 Es-dur, KV 447 - I. Allegro.flac" WAVE
    INDEX 01 00:00:00
    TRACK 08 AUDIO
    TITLE "Konzert für Horn und Orchester Nr. 3 Es-dur, KV 447: II. Romanza: Larghetto"
    PERFORMER "Ulrich Hübner, Anima Eterna. Jos van Immerseel, conductor"
    REM DATE 2005
    FLAGS DCP
    INDEX 00 07:17:43
    FILE "08 - Konzert fuer Horn und Orchester Nr. 3 Es-dur, KV 447 - II. Romanza. Larghetto.flac" WAVE
    INDEX 01 00:00:00
    FILE "09 - Konzert fuer Horn und Orchester Nr. 3 Es-dur, KV 447 - III. Allegro.flac" WAVE
    TRACK 09 AUDIO
    TITLE "Konzert für Horn und Orchester Nr. 3 Es-dur, KV 447: III. Allegro"
    PERFORMER "Ulrich Hübner, Anima Eterna. Jos van Immerseel, conductor"
    REM DATE 2005
    FLAGS DCP
    INDEX 01 00:00:00
    -
    Wolfgang Amadeus Mozart — каталог раздач на rutracker.orgВсе мои раздачи / All my releases
    [teatrix.ru].t17907.torrent 
    Торрент: Зарегистрирован [ 2016-03-17 00:47 ] · 00A71F106E4092D724D06512904DBA00979E792E

    Скачать .torrent

    Скачать

    13 KB

    Статус: проверено
    Скачан: 0 раз
    Размер: 259 MB
    terms.php



  • Быстрый ответ

    Имя:

          
    Для отправки сообщений необходимо включить JavaScript
    Показать сообщения:    

    Текущее время: 03-Дек 05:28

    Часовой пояс: UTC + 3


    Вы можете начинать темы
    Вы можете отвечать на сообщения
    Вы не можете редактировать свои сообщения
    Вы не можете удалять свои сообщения
    Вы не можете голосовать в опросах
    Вы не можете прикреплять файлы к сообщениям
    Вы можете скачивать файлы