(Vocal, Orchestral) Жозеф Кантелуб - Триптих, Песни Франции, Песни Оверни / Joseph Canteloube - Triptyque, Chants de France, Chants d'Auvergne (exepts) (Veronique Gens, Orchestre National de Lille, Serge Baudo) - 2007, FLAC (tracks) lossless


 

[Цитировать]

Canteloube - Triptyque, Chants de France, Chants d'Auvergne
Жанр: Vocal, Orchestral
Страна-производитель диска: Canada
Год издания диска: 2007
Издатель (лейбл): Naxos
Номер по каталогу: 8.557491
Дата записи: 2007
Аудиокодек: FLAC
Тип рипа: tracks
Битрейт аудио: lossless
Продолжительность: 56:57
Источник: скачано с
Наличие сканов в содержимом раздачи: да
Треклист:
Joseph Canteloube (1879-1957)
Chants d'Auvergne (1924-55)
Chants d'Auvergne, Vol. 2
01. No. 3. La Pastrouletta e lou chibalie (La Bergere et le Cavalier) 01:44
Chants d'Auvergne, Vol. 3:
02 No. 1. Lo Fiolaire (La Fileuse) 02:44
Chants d'Auvergne, Vol. 4 (excerpts)
03. No. 3. Pour L'enfant 02:56
04. No. 4. Chut, Chut 02:09
05. No. 5. Pastorale 04:29
Chants d'Auvergne, Vol. 5 (excerpts)
06. No. 1. Obal, din lo coumbelo (Au - loin, la - bas dans la vallee) 05:18
07. No. 5. Postouro, se tu m'aymo (Bergere si tu m'aimes) 01:30
08. No. 6. Te, l'co, Te! (Va, l'chien, va!) 00:43
09. No. 4. He! Beyla - z - y dau fe! (He! donne - lui du foin!) 01:45
Triptyque for voice and orchestra (1914) 16:04
10. No. 1. Offrande a l'ete 05:10
11. No. 2. Lunaire 04:00
12. No. 3. Hymne dans l'aurore 06:54
Chants de France for voice and orchestra (1948) 17:35
13. Aupres de ma blonde 03:20
14. Ou irai - je me plaindre 03:18
15. Au pre de la rose 01:23
16. Delicieuses cimes 03:29
17. Reveillez - vous! 03:38
18. D'ou venez - vous fillette 02:27
Исполнители:
Véronique Gens, soprano
Orchestre National de Lille-Region Nord ‎
Serge Baudo, direction ‎
Lille, France, 6-7 jan.2007

Лог создания рипа

Exact Audio Copy V1.0 beta 3 from 29. August 2011
EAC extraction logfile from 8. April 2012, 20:04
Veronique Gens, Orchhestre National de Lille / Canteloube - Chants d'Auvergne 2
Used drive : Optiarc DVD RW AD-7230S Adapter: 1 ID: 0
Read mode : Secure
Utilize accurate stream : Yes
Defeat audio cache : Yes
Make use of C2 pointers : No
Read offset correction : 48
Overread into Lead-In and Lead-Out : No
Fill up missing offset samples with silence : Yes
Delete leading and trailing silent blocks : No
Null samples used in CRC calculations : Yes
Used interface : Native Win32 interface for Win NT & 2000
Gap handling : Appended to previous track
Used output format : User Defined Encoder
Selected bitrate : 1024 kBit/s
Quality : High
Add ID3 tag : No
Command line compressor : C:\Program Files (x86)\Exact Audio Copy\Flac\flac.exe
Additional command line options : -8 -V -T "ARTIST=%artist%" -T "TITLE=%title%" -T "ALBUM=%albumtitle%" -T "DATE=%year%" -T "TRACKNUMBER=%tracknr%" -T "GENRE=%genre%" -T "PERFORMER=%albuminterpret%" -T "COMPOSER=%composer%" %haslyrics%--tag-from-file=LYRICS="%lyricsfile%"%haslyrics% -T "ALBUMARTIST=%albumartist%" -T "DISCNUMBER=%cdnumber%" -T "TOTALDISCS=%totalcds%" -T "TOTALTRACKS=%numtracks%" -T "COMMENT=%comment%" %source% -o %dest%
TOC of the extracted CD
Track | Start | Length | Start sector | End sector
---------------------------------------------------------
1 | 0:00.00 | 1:44.23 | 0 | 7822
2 | 1:44.23 | 2:44.04 | 7823 | 20126
3 | 4:28.27 | 2:56.44 | 20127 | 33370
4 | 7:24.71 | 2:08.02 | 33371 | 42972
5 | 9:32.73 | 4:30.02 | 42973 | 63224
6 | 14:03.00 | 5:18.09 | 63225 | 87083
7 | 19:21.09 | 1:28.67 | 87084 | 93750
8 | 20:50.01 | 0:42.60 | 93751 | 96960
9 | 21:32.61 | 1:50.66 | 96961 | 105276
10 | 23:23.52 | 5:08.52 | 105277 | 128428
11 | 28:32.29 | 3:59.34 | 128429 | 146387
12 | 32:31.63 | 6:57.15 | 146388 | 177677
13 | 39:29.03 | 3:14.14 | 177678 | 192241
14 | 42:43.17 | 3:15.56 | 192242 | 206922
15 | 45:58.73 | 1:25.68 | 206923 | 213365
16 | 47:24.66 | 3:28.41 | 213366 | 229006
17 | 50:53.32 | 3:37.54 | 229007 | 245335
18 | 54:31.11 | 2:25.19 | 245336 | 256229
Track 1
Filename F:\EAC rips\01 - La Pastrouletta e lou chibalie.wav
Pre-gap length 0:00:02.00
Peak level 86.7 %
Extraction speed 1.9 X
Track quality 100.0 %
Test CRC 16E0E133
Copy CRC 16E0E133
Accurately ripped (confidence 2) [DA8BAC4E] (AR v2)
Copy OK
Track 2
Filename F:\EAC rips\02 - Lo Fiolaire.wav
Pre-gap length 0:00:01.69
Peak level 91.7 %
Extraction speed 2.2 X
Track quality 100.0 %
Test CRC 4B80F26E
Copy CRC 4B80F26E
Accurately ripped (confidence 2) [8FE30DBB] (AR v2)
Copy OK
Track 3
Filename F:\EAC rips\03 - Pour l'enfant.wav
Pre-gap length 0:00:01.65
Peak level 33.4 %
Extraction speed 2.1 X
Track quality 99.9 %
Test CRC ADA4B501
Copy CRC ADA4B501
Accurately ripped (confidence 2) [CD2BB2A6] (AR v2)
Copy OK
Track 4
Filename F:\EAC rips\04 - Chut, chut.wav
Pre-gap length 0:00:02.09
Peak level 60.3 %
Extraction speed 2.4 X
Track quality 100.0 %
Test CRC 463501BD
Copy CRC 463501BD
Accurately ripped (confidence 2) [7F6A1665] (AR v2)
Copy OK
Track 5
Filename F:\EAC rips\05 - Pastorale.wav
Pre-gap length 0:00:00.89
Peak level 58.5 %
Extraction speed 2.9 X
Track quality 100.0 %
Test CRC 6B88FACE
Copy CRC 6B88FACE
Accurately ripped (confidence 2) [FC9B925C] (AR v2)
Copy OK
Track 6
Filename F:\EAC rips\06 - Obal, din lo coumbelo.wav
Pre-gap length 0:00:01.48
Peak level 88.8 %
Extraction speed 3.2 X
Track quality 100.0 %
Test CRC FCE6F76C
Copy CRC FCE6F76C
Accurately ripped (confidence 2) [B0947362] (AR v2)
Copy OK
Track 7
Filename F:\EAC rips\07 - Postouro, se tu m'aymo.wav
Pre-gap length 0:00:01.78
Peak level 60.1 %
Extraction speed 2.6 X
Track quality 100.0 %
Test CRC 619E99EB
Copy CRC 619E99EB
Accurately ripped (confidence 2) [154FA1C0] (AR v2)
Copy OK
Track 8
Filename F:\EAC rips\08 - Te, l'co te.wav
Pre-gap length 0:00:00.97
Peak level 100.0 %
Extraction speed 1.4 X
Track quality 99.7 %
Test CRC 3138F54A
Copy CRC 3138F54A
Accurately ripped (confidence 2) [163791DC] (AR v2)
Copy OK
Track 9
Filename F:\EAC rips\09 - He! Beyla-z-y dau fe.wav
Pre-gap length 0:00:00.28
Peak level 95.7 %
Extraction speed 2.3 X
Track quality 99.9 %
Test CRC F85E1474
Copy CRC F85E1474
Accurately ripped (confidence 2) [D4E2D148] (AR v2)
Copy OK
Track 10
Filename F:\EAC rips\10 - Offrande a l'ete.wav
Pre-gap length 0:00:06.21
Peak level 100.0 %
Extraction speed 3.6 X
Track quality 100.0 %
Test CRC 43EEE169
Copy CRC 43EEE169
Accurately ripped (confidence 3) [8E14C5A4] (AR v2)
Copy OK
Track 11
Filename F:\EAC rips\11 - Lunaire.wav
Pre-gap length 0:00:05.37
Peak level 61.9 %
Extraction speed 3.7 X
Track quality 100.0 %
Test CRC 98DA8794
Copy CRC 98DA8794
Accurately ripped (confidence 3) [798A4A26] (AR v2)
Copy OK
Track 12
Filename F:\EAC rips\12 - Hymne dans l'aurore.wav
Pre-gap length 0:00:05.13
Peak level 96.7 %
Extraction speed 4.2 X
Track quality 100.0 %
Test CRC 1B9BDEDC
Copy CRC 1B9BDEDC
Accurately ripped (confidence 3) [99854BE3] (AR v2)
Copy OK
Track 13
Filename F:\EAC rips\13 - Aupres de ma blonde.wav
Pre-gap length 0:00:07.93
Peak level 100.0 %
Extraction speed 3.4 X
Track quality 99.9 %
Test CRC FFC338A0
Copy CRC FFC338A0
Accurately ripped (confidence 3) [2237D2FF] (AR v2)
Copy OK
Track 14
Filename F:\EAC rips\14 - Ou irai-je me plaindre.wav
Pre-gap length 0:00:02.46
Peak level 63.8 %
Extraction speed 4.1 X
Track quality 100.0 %
Test CRC A36D3E1B
Copy CRC A36D3E1B
Accurately ripped (confidence 3) [79B76BCC] (AR v2)
Copy OK
Track 15
Filename F:\EAC rips\15 - Au pre de la rose.wav
Pre-gap length 0:00:00.28
Peak level 42.5 %
Extraction speed 3.4 X
Track quality 100.0 %
Test CRC E07DE2B8
Copy CRC E07DE2B8
Accurately ripped (confidence 3) [4F847484] (AR v2)
Copy OK
Track 16
Filename F:\EAC rips\16 - Delicieuses cimes.wav
Pre-gap length 0:00:02.81
Peak level 80.7 %
Extraction speed 4.3 X
Track quality 100.0 %
Test CRC A86545E4
Copy CRC A86545E4
Accurately ripped (confidence 3) [2CD7E8D9] (AR v2)
Copy OK
Track 17
Filename F:\EAC rips\17 - Reveillez-vous!.wav
Pre-gap length 0:00:02.06
Peak level 30.2 %
Extraction speed 4.4 X
Track quality 100.0 %
Test CRC 9A93BA9C
Copy CRC 9A93BA9C
Accurately ripped (confidence 3) [CA81FDEB] (AR v2)
Copy OK
Track 18
Filename F:\EAC rips\18 - D'ou venez-vous fillette.wav
Pre-gap length 0:00:01.65
Peak level 73.5 %
Extraction speed 4.3 X
Track quality 100.0 %
Test CRC 8995FCB3
Copy CRC 8995FCB3
Accurately ripped (confidence 3) [0CDF792A] (AR v2)
Copy OK
All tracks accurately ripped
No errors occurred
End of status report
==== Log checksum 0C3F840FEDC344486B354DBB07A764048A5CF1FCDDB9B5C02DFA2BC5CD253CB3 ====
Доп. информация: Французское сопрано Вероник Жан вместе с Лилльским оркестром под руководством Сержа Бодо исполняет избранные "Песни Оверни" Жозефа Кантелуба, а также два редкозвучащих вокальных цикла композитора. "Триптих" для голоса с оркестром сочинён молодым Кантелубом в 1914 году на стихи Роже Френе. Это было время расцвета импрессионизма и образцом для этих изысканных вокальных поэм с экзотической оркестровкой стала музыка Дебюсси и Равеля. 1. "Приношение лету" - страстная песня о любви, 2. "Лунная" наполнена таинственным лирическим 'ночным' настроением, "Гимн рассвету" - востороженная молитва, обращённая к Пану. "Песни Франции", написанные в 1948 году - другая антология французских народных песен, не такая известная как "Песни Оверни", но не менее интересная.
Жозеф Кантелуб - Песни Оверни (Нетания Даврат)
http://teatrix.ru/viewtopic.php?t=4509718



Показать сообщения:    

Текущее время: 08-Дек 21:08

Часовой пояс: UTC + 3


Вы не можете начинать темы
Вы не можете отвечать на сообщения
Вы не можете редактировать свои сообщения
Вы не можете удалять свои сообщения
Вы не можете голосовать в опросах
Вы не можете прикреплять файлы к сообщениям
Вы не можете скачивать файлы