Артуро Тосканини. Маэстро / Toscanini: The Maestro (Питер Розен / Peter Rosen) [1988, фильм-портрет, биография, музыка, DVB] DVO (Видеопродакшн)


Статистика раздачи [Обновить пиров]
Размер:  2.45 GB   |    Зарегистрирован:  8 месяцев 19 дней   |    Скачан:  0 раз

Полного источника не было: Никогда

 
   
 
 
 

[Цитировать]

Тосканини. Маэстро
Toscanini: The Maestro- Год выпуска: 1988
Страна: США, Канада
Жанр: фильм-портрет, биография, музыка
Продолжительность: 01:23:25
Перевод: Профессиональный (двухголосый закадровый) (Компания "Видеопродакшн")
Русские субтитры: нет
Режиссер: Питер Розен / Peter Rosen
Описание: Артуро Тосканини (1867-1957) - итальянский дирижёр. В разные годы возглавлял театр "Ла Скала" в Милане, в 1908-1915 годах дирижировал в "Метрополитен-опера" в Нью-Йорке. Гастролировал во многих странах. С 1928 года жил в США. Руководил "Метрополитен-опера", оркестрами Нью-Йоркским филармоническим (1926-1936) и Национальной радиовещательной компании (1937-1953; организован специально для Тосканини). Под управлением Тосканини в 1930-х годах проведены музыкальные фестивали в Байрёйте и Зальцбурге.
Тосканини - выдающийся представитель современного исполнительского искусства, крупнейший оперный и симфонический дирижёр. Обладал исключительным артистическим темпераментом и музыкальной памятью, энергией и силой воздействия на исполнителей. Добивался совершенной точности, полноты реализации авторского замысла. В репертуаре - классическая и романтическая музыка; исполнял и современные сочинения (в 1942 году впервые за рубежом дирижировал 7-й, "Ленинградской", симфонией Шостаковича). (анонс канала "Кто есть кто")
Доп. информация: Запись со спутника (телеканал "Кто есть кто").
[box]http://www.imdb.com/title/tt0178946/[/box]
Сэмпл: http://multi-up.com/928247
качество: DVB
формат: MPEG-PS (См. при проблемах с просмотром видео)
Видео: MPEG Video 2, 720x576@768x576 (4:3), 25 fps, ~3930 kbps avg, 0.379 bit/pixel
Аудио: 48 kHz, MPEG Audio 2, 2 ch, ~192.00 kbps avg

MediaInfo

Полное имя                               : H:\My Torrents\[apreder]Toscanini_The_Maestro(1988)DVB.mpg
Формат : MPEG-PS
Размер файла : 2,45 Гбайт
Продолжительность : 1 ч. 23 м.
Режим общего битрейта : Переменный
Общий поток : 4206 Кбит/сек
Видео
Идентификатор : 224 (0xE0)
Формат : MPEG Video
Версия формата : Version 2
Профиль формата : Main@Main
Параметр BVOP формата : Да
Параметр матрицы формата : Выборочная
Параметр GOP формата : Variable
Продолжительность : 1 ч. 23 м.
Вид битрейта : Переменный
Битрейт : 3930 Кбит/сек
Ширина : 720 пикселей
Высота : 576 пикселей
Соотношение сторон : 4:3
Частота кадров : 25,000 кадров/сек
Стандарт вещания : PAL
Цветовое пространство : YUV
Субдискретизация насыщенности : 4:2:0
Битовая глубина : 8 бит
Тип развёртки : Чересстрочная
Порядок развёртки : Верхнее поле первое
Метод сжатия : С потерями
Бит/(Пиксели*Кадры) : 0.379
Временной код первого кадра : 00:00:00:00
Оригинал временного кода : Group of pictures header
Размер потока : 2,29 Гбайт (93%)
Аудио
Идентификатор : 192 (0xC0)
Формат : MPEG Audio
Версия формата : Version 1
Профиль формата : Layer 2
Продолжительность : 1 ч. 23 м.
Вид битрейта : Постоянный
Битрейт : 192 Кбит/сек
Каналы : 2 канала
Частота : 48,0 КГц
Метод сжатия : С потерями
Размер потока : 115 Мбайт (5%)

Скриншоты


Резервные скриншоты


-1'080/1'062√
[teatrix.ru].t17912.torrent 
Торрент: Зарегистрирован [ 2016-03-17 00:47 ] · CA2566239721D3F6B183FCC2E1AF15B66F5B5CF8

Скачать .torrent

Скачать

13 KB

Статус: проверено
Скачан: 0 раз
Размер: 2.45 GB
terms.php



Быстрый ответ

Имя:

      
Для отправки сообщений необходимо включить JavaScript
Показать сообщения:    

Текущее время: 05-Дек 01:22

Часовой пояс: UTC + 3


Вы можете начинать темы
Вы можете отвечать на сообщения
Вы не можете редактировать свои сообщения
Вы не можете удалять свои сообщения
Вы не можете голосовать в опросах
Вы не можете прикреплять файлы к сообщениям
Вы можете скачивать файлы