Любимые актеры. Николай Еременко [2013, Документальный, биография, кинематограф, SATRip]


Статистика раздачи [Обновить пиров]
Размер:  285 MB   |    Зарегистрирован:  8 месяцев 21 день   |    Скачан:  0 раз

Полного источника не было: Никогда

 
   
 
 
 

[Цитировать]

Любимые актеры. Николай Еременко
Год выпуска: 2013
Страна: Россия, ТК "Мир"
Жанр: Документальный, биография, кинематограф
Продолжительность: 00:25:57
Перевод: Не требуется
Русские субтитры: нет
Описание: «Любимые актеры» — это фильм-портрет. Авторский взгляд на судьбу известного артиста. Ведущий программы — «коллекционер» актерских баек и историй. Нам интересен не только творческий путь актера, но и его личная жизнь. Его судьба непредсказуема. Взлеты, падения, надежды, разочарования. Нередко путь к славе оборачивается дорогой к забвению. Кроме главного героя в программе присутствуют его друзья, родственники, коллеги.
Еременко Николай Николаевич (мл.) родился 14 февраля 1949 года в Витебске, в семье народного артиста СССР Николая Николаевича Ерёменко (1926-2000) и народной артистки Белорусской ССР Галины Александровны Орловой (род. 1928). Лауреат премии Ленинского комсомола (1980).
Лучший актёр 1981 года за роль в фильме «Пираты ХХ века» по опросу журнала «Советский экран». Награждён призами российских и международных фестивалей. Народный артист России (01.03.1994).
качество: SATRip
формат: AVI
Видео: XviD, 1396 Кбит/с, 640х480, 25.000 кадр/сек
Аудио: MP3, 2 ch, 128 Кбит/с, 48.0 КГц

MediaInfo

Complete name : D:\Раздачи\Любимые актеры.Николай Еременко.avi
Format : AVI
Format/Info : Audio Video Interleave
File size : 285 MiB
Duration : 25mn 57s
Overall bit rate : 1 534 Kbps
Writing application : VirtualDubMod 1.5.10.3 | www.virtualdub-fr.org || (build 2550/release)
Writing library : VirtualDubMod build 2550/release
Video
ID : 0
Format : MPEG-4 Visual
Format profile : Advanced Simple@L5
Format settings, BVOP : 2
Format settings, QPel : No
Format settings, GMC : No warppoints
Format settings, Matrix : Default (MPEG)
Codec ID : XVID
Codec ID/Hint : XviD
Duration : 25mn 57s
Bit rate : 1 396 Kbps
Width : 640 pixels
Height : 480 pixels
Display aspect ratio : 4:3
Frame rate : 25.000 fps
Color space : YUV
Chroma subsampling : 4:2:0
Bit depth : 8 bits
Scan type : Progressive
Compression mode : Lossy
Bits/(Pixel*Frame) : 0.182
Stream size : 259 MiB (91%)
Writing library : XviD 1.2.1 (UTC 2008-12-04)
Audio
ID : 1
Format : MPEG Audio
Format version : Version 1
Format profile : Layer 3
Codec ID : 55
Codec ID/Hint : MP3
Duration : 25mn 57s
Bit rate mode : Constant
Bit rate : 128 Kbps
Channel(s) : 2 channels
Sampling rate : 48.0 KHz
Compression mode : Lossy
Stream size : 23.8 MiB (8%)
Alignment : Aligned on interleaves
Interleave, duration : 40 ms (1.00 video frame)
Interleave, preload duration : 504 ms
Writing library : LAME3.99r
Encoding settings : -m s -V 4 -q 2 -lowpass 17 -b 128

Скриншоты



[teatrix.ru].t17913.torrent 
Торрент: Зарегистрирован [ 2016-03-17 00:47 ] · 10FD2997A11C11B0FBBCD08B219DAA32FE96A02B

Скачать .torrent

Скачать

6 KB

Статус: проверено
Скачан: 0 раз
Размер: 285 MB
terms.php



Показать сообщения:    

Текущее время: 07-Дек 17:31

Часовой пояс: UTC + 3


Вы не можете начинать темы
Вы не можете отвечать на сообщения
Вы не можете редактировать свои сообщения
Вы не можете удалять свои сообщения
Вы не можете голосовать в опросах
Вы не можете прикреплять файлы к сообщениям
Вы можете скачивать файлы