(Ballet/Opera/Instrumental) Delibes - Sylvia / Lakme / Le Roi s'amuse / Coppelia (Lillian Watson - Royal Philharmonic Orchestra, Carl Davis) - 2005, APE (image+.cue) lossless


 

[Цитировать]

Delibes - Sylvia / Lakme / Le Roi s'amuse / Coppelia
Жанр: Ballet/Opera/Instrumental
Страна-производитель диска: Germany
Год издания диска: 2005
Издатель (лейбл): Membran
Номер по каталогу: 222827
Дата записи: 1996
Аудиокодек: APE
Тип рипа: image+.cue
Битрейт аудио: lossless
Продолжительность: 1'03'28
Источник: собственный рип
Наличие сканов в содержимом раздачи: да
Треклист:
Sylvia
01. - Prelude et 'Les Chasseresses'
02. - Intermezzo et Valse Lente
03. - Pizzicato
04. - Cortège de Bacchus
Lakmé (Excerpts)
05. - 'Viens Malliká' Dueto das Flores
06. - Où Va La Jeune Hindoue: Ária das Campainhas
Le Roi s'amuse
07. - Gaillarde
08. - Pavane
09. - Madrigal
10. - Passepied
Coppélia (Excerpts)
11. - Prelude et Mazurca
12. - Festival dos Relógios e Dança das Horas
13. - Noturno
14. - Música da Boneca e Valsa
15. - CzardasИсполнители:
Léo Delibes (1836-1891)
Lilian Watson, soprano
Christine Cairns, mezzo-soprano
The Royal Philharmonic Orchestre,
Carl Davis

Лог создания рипа

Exact Audio Copy V1.0 beta 3 from 29. August 2011
EAC extraction logfile from 29. October 2013, 11:52
Delibes, Léo / Sylvia & Coppelia & Le Roi s'amuse u.a. (Carl Davis, Royal Philharmonic Orch.)
Used drive : TSSTcorpCDDVDW SE-208AB Adapter: 1 ID: 0
Read mode : Secure
Utilize accurate stream : Yes
Defeat audio cache : Yes
Make use of C2 pointers : No
Read offset correction : 6
Overread into Lead-In and Lead-Out : No
Fill up missing offset samples with silence : Yes
Delete leading and trailing silent blocks : No
Null samples used in CRC calculations : Yes
Used interface : Native Win32 interface for Win NT & 2000
Used output format : Monkey's Audio Lossless Encoder
Selected bitrate : High Lossless Compression
Quality : High
Add ID3 tag : Yes
Command line compressor : K:\Program Files (x86)\Exact Audio Copy\Monkeys Audio\Monkey's Audio\MAC.exe
Additional command line options : -6 -V -T "ARTIST=%artist%" -T "TITLE=%title%" -T "ALBUM=%albumtitle%" -T "DATE=%year%" -T "TRACKNUMBER=%tracknr%" -T "GENRE=%genre%" -T "COMMENT=%comment%" -T "BAND=%albuminterpret%" -T "ALBUMARTIST=%albuminterpret%" -T "COMPOSER=%composer%" %haslyrics%--tag-from-file=LYRICS="%lyricsfile%"%haslyrics% -T "DISCNUMBER=%cdnumber%" -T "TOTALDISCS=%totalcds%" -T "TOTALTRACKS=%numtracks%" %hascover%--picture="%coverfile%"%hascover% %source% -o %dest%
TOC of the extracted CD
Track | Start | Length | Start sector | End sector
---------------------------------------------------------
1 | 0:00.00 | 5:10.19 | 0 | 23268
2 | 5:10.19 | 3:46.20 | 23269 | 40238
3 | 8:56.39 | 1:51.54 | 40239 | 48617
4 | 10:48.18 | 6:01.63 | 48618 | 75755
5 | 16:50.06 | 5:57.27 | 75756 | 102557
6 | 22:47.33 | 7:49.68 | 102558 | 137800
7 | 30:37.26 | 2:59.43 | 137801 | 151268
8 | 33:36.69 | 1:42.55 | 151269 | 158973
9 | 35:19.49 | 1:56.57 | 158974 | 167730
10 | 37:16.31 | 1:48.47 | 167731 | 175877
11 | 39:05.03 | 6:29.66 | 175878 | 205118
12 | 45:34.69 | 6:22.05 | 205119 | 233773
13 | 51:56.74 | 2:38.13 | 233774 | 245636
14 | 54:35.12 | 5:13.02 | 245637 | 269113
15 | 59:48.14 | 3:39.74 | 269114 | 285612
Range status and errors
Selected range
Filename I:\Foobar-EAC\Delibes, Léo - Sylvia & Coppelia & Le Roi s'amuse u.a. (Carl Davis, Royal Philharmonic Orch.).wav
Peak level 100.0 %
Extraction speed 4.9 X
Range quality 100.0 %
Test CRC 674F6309
Copy CRC 674F6309
Copy OK
No errors occurred
AccurateRip summary
Track 1 accurately ripped (confidence 4) [443B390C] (AR v2)
Track 2 accurately ripped (confidence 4) [4FDE10D3] (AR v2)
Track 3 accurately ripped (confidence 4) [8679683C] (AR v2)
Track 4 accurately ripped (confidence 4) [F44803D6] (AR v2)
Track 5 accurately ripped (confidence 4) [FFA603CE] (AR v2)
Track 6 accurately ripped (confidence 4) [E8043D3A] (AR v2)
Track 7 accurately ripped (confidence 4) [22A84DDD] (AR v2)
Track 8 accurately ripped (confidence 4) [A457F049] (AR v2)
Track 9 accurately ripped (confidence 4) [EB09DB9B] (AR v2)
Track 10 accurately ripped (confidence 4) [9EEE6E94] (AR v2)
Track 11 accurately ripped (confidence 4) [B2D9BD18] (AR v2)
Track 12 accurately ripped (confidence 4) [D3EC1D77] (AR v2)
Track 13 accurately ripped (confidence 4) [4969CAB7] (AR v2)
Track 14 accurately ripped (confidence 4) [1349A04F] (AR v2)
Track 15 accurately ripped (confidence 4) [BD8025F8] (AR v2)
All tracks accurately ripped
End of status report
---- CUETools DB Plugin V2.1.3
[CTDB TOCID: .IJEgoXLFwsJWq12s61uDZiVkoc-] found, Submit result: database access error: ExpectationFailed
[83e3525f] (2/2) Accurately ripped
==== Log checksum 80810F98CD9DACC5826E4C2852C32CE816B77A9CC9F2941E8BC1773A222C1531 ====

Содержание индексной карты (.CUE)

REM GENRE Orchesterwerk
REM DATE 1996
REM DISCID C20EE00F
REM COMMENT "ExactAudioCopy v1.0b3"
PERFORMER "Delibes, Léo"
TITLE "Sylvia & Coppelia & Le Roi s'amuse u.a. (Carl Davis, Royal Philharmonic Orch.)"
FILE "Delibes, Léo - Sylvia & Coppelia & Le Roi s'amuse u.a. (Carl Davis, Royal Philharmonic Orch.).ape" WAVE
TRACK 01 AUDIO
TITLE "Sylvia - Prelude et 'Les Chasseresses'"
PERFORMER "Delibes, Léo"
ISRC DEU240500462
INDEX 01 00:00:00
TRACK 02 AUDIO
TITLE " - Intermezzo: Valse Lente"
PERFORMER "Delibes, Léo"
ISRC DEU240500463
INDEX 00 05:08:19
INDEX 01 05:10:19
TRACK 03 AUDIO
TITLE " - Pizzicato"
PERFORMER "Delibes, Léo"
ISRC DEU240500464
INDEX 00 08:54:39
INDEX 01 08:56:39
TRACK 04 AUDIO
TITLE " - Cortège de Bacchus"
PERFORMER "Delibes, Léo"
ISRC DEU240500465
INDEX 00 10:46:18
INDEX 01 10:48:18
TRACK 05 AUDIO
TITLE "Lakmé - 'Viens Malliká' Dueto das Flores"
PERFORMER "Delibes, Léo"
ISRC DEU240500466
INDEX 00 16:47:06
INDEX 01 16:50:06
TRACK 06 AUDIO
TITLE " - Où Va La Jeune Hindoue: Ária das Campainhas"
PERFORMER "Delibes, Léo"
ISRC DEU240500467
INDEX 00 22:45:33
INDEX 01 22:47:33
TRACK 07 AUDIO
TITLE "Le Roi s'amuse - Gaillarde"
PERFORMER "Delibes, Léo"
ISRC DEU240500468
INDEX 00 30:34:26
INDEX 01 30:37:26
TRACK 08 AUDIO
TITLE " - Pavane"
PERFORMER "Delibes, Léo"
ISRC DEU240500469
INDEX 00 33:34:69
INDEX 01 33:36:69
TRACK 09 AUDIO
TITLE " - Madrigal"
PERFORMER "Delibes, Léo"
ISRC DEU240500470
INDEX 00 35:17:49
INDEX 01 35:19:49
TRACK 10 AUDIO
TITLE " - Passepied"
PERFORMER "Delibes, Léo"
ISRC DEU240500471
INDEX 00 37:14:31
INDEX 01 37:16:31
TRACK 11 AUDIO
TITLE "Coppélia - Prelude et Mazurca"
PERFORMER "Delibes, Léo"
ISRC DEU240500472
INDEX 00 39:02:03
INDEX 01 39:05:03
TRACK 12 AUDIO
TITLE " - Festival dos Relógios e Dança das Horas"
PERFORMER "Delibes, Léo"
ISRC DEU240500473
INDEX 00 45:32:69
INDEX 01 45:34:69
TRACK 13 AUDIO
TITLE " - Noturno"
PERFORMER "Delibes, Léo"
ISRC DEU240500474
INDEX 00 51:54:74
INDEX 01 51:56:74
TRACK 14 AUDIO
TITLE " - Música da Boneca e Valsa"
PERFORMER "Delibes, Léo"
ISRC DEU240500475
INDEX 00 54:33:12
INDEX 01 54:35:12
TRACK 15 AUDIO
TITLE " - Czardas"
PERFORMER "Delibes, Léo"
ISRC DEU240500476
INDEX 00 59:46:14
INDEX 01 59:48:14
Доп. информация:
Conductor-composer Carl Davis set down this collection of rosebuds from Frenchman Leo Delibes (1836-1891) in 1996 in London.
It was resurrected here as a second coming of a paean to the Royal Philharmonic Orchestra, which the original notes grandly called "Britain's national orchestra."
The notes to this issue make a powerful boast that it delivers stupendous playing, which is true.
Indeed, with playing like we have here, any nation would be pleased to call this orchestra its national treasure!
Delibes is best known for his opera Lakme -- represented here by the flower duet and bell song -- and the ballets the suites here come from -- Sylvia, in three acts from 1876, and Coppelia (Girl With Enamel Eyes), also in three acts from 1870.
The other piece represented in this collection is the miscellany Le roi s'amuse, a collection of dances the composer set down in piano score 1882.



Показать сообщения:    

Текущее время: 06-Дек 13:09

Часовой пояс: UTC + 3


Вы не можете начинать темы
Вы не можете отвечать на сообщения
Вы не можете редактировать свои сообщения
Вы не можете удалять свои сообщения
Вы не можете голосовать в опросах
Вы не можете прикреплять файлы к сообщениям
Вы не можете скачивать файлы