Хорошие, Плохие и Прекрасные / The Good, the Bad & the Beautiful (Лора Сан Джакомо / Laura San Giacomo) [1996, США, документальный, VHSRip] AVO (Кузнецов)


Статистика раздачи [Обновить пиров]
Размер:  1.4 GB   |    Зарегистрирован:  8 месяцев 18 дней   |    Скачан:  0 раз

Полного источника не было: Никогда

 
   
 
 
 

[Цитировать]

Хорошие, Плохие и Прекрасные / The Good, the Bad & the Beautiful
Страна: США
Жанр: документальный
Год выпуска: 1996
Продолжительность: 01:36:13
Перевод: Авторский закадровый Сергея Кузнецова
Cубтитры: нет
Оригинальная аудиодорожка: нет
Режиссер: Лора Сан Джакомо / Laura San Giacomo
В ролях: Лора Сан Джакомо / Laura San Giacomo ... Narrator
Кэти Бейтс / Kathy Bates ... Herself
Нора Эфрон / Nora Ephron ... Herself
Рози О’Доннелл / Rosie O'Donnell ... Herself
Наташа Ричардсон / Natasha Richardson ... Herself
Шэрон Стоун / Sharon Stone ... Herself
Кэтлин Тёрнер / Kathleen Turner ... Herself
........................................................................
Ingrid Bergman ... Herself (archive footage)
Glenn Close ... Herself
Jamie Lee Curtis ... Herself
Sally Field ... Herself
Greta Garbo ... Herself (archive footage)
Whoopi Goldberg ... Herself (archive footage)
Daryl Hannah ... Herself
Jean Harlow ... Herself (archive footage)
Rita Hayworth ... Herself (archive footage)
Audrey Hepburn ... Herself (archive footage)
Katharine Hepburn ... Herself (archive footage)
Grace Kelly ... Herself (archive footage)
Honey Lauren ... Lisa's mom
Vivien Leigh ... Herself (archive footage)
Marilyn Monroe ... Herself (archive footage)
Jeanne Moreau ... Herself
Barbara Stanwyck ... Herself (archive footage)
Barbra Streisand ... Herself (archive footage)
Mae West ... Herself (archive footage)
Описание: про женщин в кино ...
ИЗ СЕРИИ ЛЮБИМЫЕ ПЕРЕВОДЫ
Доп. информация: - фильм оцифрован мной с коллекционной VHS
Сэмпл: http://multi-up.com/928428
Качество видео: VHSRip
Формат видео: AVI
Видео: 688x544 (1.26:1), 25 fps, XviD build 50 ~1879 kbps avg, 0.20 bit/pixel
Аудио: 48 kHz, AC3 Dolby Digital, 2/0 (L,R) ch, ~192 kbps

MediaInfo

Формат : AVI
Формат/Информация : Audio Video Interleave
Размер файла : 1,40 Гбайт
Продолжительность : 1 ч. 36 м.
Общий поток : 2082 Кбит/сек
Название фильма : The Good, the Bad & the Beautiful (1996)
Программа кодирования : VirtualDubMod 1.5.10.3 | www.virtualdub-fr.org || (build 2550/release)
Библиотека кодирования : VirtualDubMod build 2550/release
Правообладатель : sasikainen
Видео
Идентификатор : 0
Формат : MPEG-4 Visual
Профиль формата : Advanced Simple@L5
Параметр BVOP формата : 1
Параметр QPel формата : Нет
Параметр GMC формата : Без точки перехода
Параметр матрицы формата : Default (H.263)
Идентификатор кодека : XVID
Идентификатор кодека/Подсказка : XviD
Продолжительность : 1 ч. 36 м.
Битрейт : 1880 Кбит/сек
Ширина : 688 пикселей
Высота : 544 пикселя
Соотношение сторон : 5:4
Частота кадров : 25,000 кадров/сек
Цветовое пространство : YUV
Субдискретизация насыщенности : 4:2:0
Битовая глубина : 8 бит
Тип развёртки : Прогрессивная
Метод сжатия : С потерями
Бит/(Пиксели*Кадры) : 0.201
Размер потока : 1,26 Гбайт (90%)
Библиотека кодирования : XviD 1.2.1 (UTC 2008-12-04)
Аудио
Идентификатор : 1
Формат : AC-3
Формат/Информация : Audio Coding 3
Расширение режима : CM (complete main)
Параметр Endianness формата : Big
Идентификатор кодека : 2000
Продолжительность : 1 ч. 36 м.
Вид битрейта : Постоянный
Битрейт : 192 Кбит/сек
Каналы : 2 канала
Расположение каналов : Front: L R
Частота : 48,0 КГц
Битовая глубина : 16 бит
Метод сжатия : С потерями
Размер потока : 132 Мбайт (9%)
Выравнивание : Разделение по промежуткам
Продолжительность промежутка : 40 мс. (1,00 видеокадр)
Время предзагрузки промежутка : 500 мс.
Заголовок : Kuznetzov

Скриншоты

[teatrix.ru].t17915.torrent 
Торрент: Зарегистрирован [ 2016-03-17 00:47 ] · 4DED91CCC35B7A3FB94D4D4C31FAA3ACC9192BAB

Скачать .torrent

Скачать

15 KB

Статус: проверено
Скачан: 0 раз
Размер: 1.4 GB
terms.php



Показать сообщения:    

Текущее время: 04-Дек 04:58

Часовой пояс: UTC + 3


Вы не можете начинать темы
Вы не можете отвечать на сообщения
Вы не можете редактировать свои сообщения
Вы не можете удалять свои сообщения
Вы не можете голосовать в опросах
Вы не можете прикреплять файлы к сообщениям
Вы можете скачивать файлы