Борис Добронравов (Николай Субботин) [1985 г., Биографический, документальный, TVRip]


Статистика раздачи [Обновить пиров]
Размер:  697 MB   |    Зарегистрирован:  8 месяцев 22 дня   |    Скачан:  0 раз

Полного источника не было: Никогда

 
   
 
 
 

[Цитировать]

Борис Добронравов Жанр: Биографический, документальный.
Год выпуска: 1985.
Продолжительность: 00:53:28.
Режиссер: Николай Субботин.
Рассказывают об актере:
Софья Пилявская, Олег Ефремов, Ангелина Степанова, Виктор Розов, Владлен Давыдов, Михаил Ульянов, Елена Добронравова.
Описание:
Фильм о выдающемся русском актере театра и кино, народном артисте СССР Борисе Георгиевиче Добронравове.
Борис Добронравов родился в 1896 году в Москве.
В искусстве Добронравова мужественная простота сочеталась с романтическим вдохновением, подчас поэтическим пафосом, филигранной актёрской техникой.
В 1930-1940-х годах много играл в спектаклях на произведения современной отечественной драматургии: Листрат ("Земля" Н.Е. Вирты, 1937), Сафонов ("Русские люди" К.М. Симонова, 1943) и др.
Роли царя Фёдора ("Царь Фёдор Иоаннович" А.К. Толстого, 1944) и Войницкого ("Дядя Ваня" Чехова, 1947) стали событиями в истории отечественного театра.
С 1920 года снимался в кино. Среди ролей: крепостной музыкант Егор Ефимов ("Петербургская ночь", 1934), Давыдов ("Поднятая целина", 1940).
Борис Добронравов умер в Москве в 1949 году на сцене МХАТа, во время исполнения любимой роли царя Фёдора. Похоронен актёр на Новодевичьем кладбище.

Дополнительная информация:
Страна: СССР .
Выпущено: Творческое объединение "Экран".
Автор сценария: Владлен Давыдов.
Оператор: Игорь Мордмиллович.
В фильме использованы материалы Госфильмофонда СССР, Центрального государственного архива кинофотодокументов СССР и музея МХАТ СССР им. М.Горького.
Релиз
Качество видео:...TVRip
Формат:.................AVI
Видео:..704x528 (1.33:1), 25 fps, XviD build 50 ~1684 kbps avg, 0.18 bit/pixel
Аудио:..44.100 kHz, MPEG Layer 3, 2 ch, ~128.00 kbps avg

Отчет Media Info

Общее
Полное имя : Boris.Dobronravov.1985.XviD.TVRip.fenixclub.avi
Format : AVI
Format/Info : Audio Video Interleave
File size : 697 MiB
Duration : 53mn 27s
Overall bit rate : 1 822 Kbps
Video
ID : 0
Format : MPEG-4 Visual
Format profile : Advanced Simple@L5
Format settings, BVOP : 2
Format settings, QPel : No
Format settings, GMC : No warppoints
Format settings, Matrix : Default (MPEG)
Codec ID : XVID
Codec ID/Hint : XviD
Duration : 53mn 27s
Bit rate : 1 685 Kbps
Width : 704 pixels
Height : 528 pixels
Display aspect ratio : 4:3
Frame rate : 25.000 fps
Color space : YUV
Chroma subsampling : 4:2:0
Bit depth : 8 bits
Scan type : Progressive
Compression mode : Lossy
Bits/(Pixel*Frame) : 0.181
Stream size : 644 MiB (92%)
Writing library : XviD 1.2.1 (UTC 2008-12-04)
Audio
ID : 1
Format : MPEG Audio
Format version : Version 1
Format profile : Layer 3
Codec ID : 55
Codec ID/Hint : MP3
Duration : 53mn 27s
Bit rate mode : Constant
Bit rate : 128 Kbps
Channel(s) : 2 channels
Sampling rate : 44.1 KHz
Compression mode : Lossy
Stream size : 48.9 MiB (7%)
Alignment : Split accross interleaves
Interleave, duration : 40 ms (1.00 video frame)
Interleave, preload duratio : 500 ms
Writing library : LAME3.99r
Encoding settings : -m s -V 4 -q 2 -lowpass 17 -b 128

Скриншоты

Альтернативный хост

Торрент-файл перезалит в связи с заменой рипа в 18:52 08.09.2015.
[teatrix.ru].t17916.torrent 
Торрент: Зарегистрирован [ 2016-03-17 00:47 ] · 33B54E2DF4D842171226304053E267873C8B90C9

Скачать .torrent

Скачать

14 KB

Статус: проверено
Скачан: 0 раз
Размер: 697 MB
terms.php



Показать сообщения:    

Текущее время: 08-Дек 01:20

Часовой пояс: UTC + 3


Вы не можете начинать темы
Вы не можете отвечать на сообщения
Вы не можете редактировать свои сообщения
Вы не можете удалять свои сообщения
Вы не можете голосовать в опросах
Вы не можете прикреплять файлы к сообщениям
Вы можете скачивать файлы