(Oratorio) Handel - Theodora (Harper, Lehane, Forrester, Young, Fleet, Lawrenson - English Chamber Orchestra, Somary 1990) - 1999, FLAC (image+.cue) lossless


Статистика раздачи [Обновить пиров]
Размер:  700 MB   |    Зарегистрирован:  8 месяцев 23 дня   |    Скачан:  1 раз

Полного источника не было: 2 месяца 9 дней

 
   
 
 
 

[Цитировать]

Handel - Theodora (English Chamber Orchestra, Somary 1990)
Жанр: Oratorio
Страна-производитель диска: EU
Год издания диска: 1999
Издатель (лейбл): Brilliant
Номер по каталогу: 99271
Дата записи: 1992
Аудиокодек: FLAC
Тип рипа: image+.cue
Битрейт аудио: lossless
Продолжительность: 76'54 + 75'51
Источник: собственный рип
Наличие сканов в содержимом раздачи: да
Треклист:

CD1

1 Act 1.: Overture
2 Act 1. Scene 1.: "Tis Dioclesian's natal day"
3 Act 1. Scene 1.: "Vouchsafe, dread lord, a gracious ear"
4 Act 1. Scene 1.: "For ever thus stands fixed the doom"
5 Act 1. Scene 1.: "Most cruel decree; sure thy noble soul"
6 Act 1. Scene 1.: "I know thy virtures, and ask not thy faith"
7 Act 1. Scene 2.: "Through hard, my friends, yet wholesome are the truths"
8 Act 1. Scene 2.: "Oh bright example of all goodness"
9 Act 1. Scene 2.: "Come, mighty Father, mighty Lord"
10 Act 1. Scene 2.: "Fly, fly, my brethren, heathen rage pursues us swift"
11 Act 1. Scene 2.: "All pow'r in Heaven above, or earth beneath"
12 Act 1. Scene 2.: "Oh mistaken wretches, why thus blind to fate"
13 Act 2. Scene 2.: "Oh worse than death indeed!"
14 Act 1. Scene 2.: "Unhappy, happy crew!- Why stand you thus"
15 Act 1. Scene 2.: "Kind Heaven, if virture be Thy care"
16 Act 1. Scene 2.: "Oh Love, how great thy power! but greater still"
17 Act 2. Scene 1.: "Ye men of Antioch, with solemn pomp"
18 Act 2. Scene 1.: "Wide spread his name"
19 Act 2. Scene 1.: "Return, Septimius, to the stubborn maid"
20 Act 2. Scene 2.: Symphony
21 Act 2. Scene 2.: "Oh thou bright Sun! how sweet thy rays"
22 Act 2. Scene 2.: Symphony
23 Act 2. Scene 2.: "But why art thou disquited, my soul? "

CD2

1 Act 2. Scene 3.: "Long have I known thy friendly social soul"
2 Act 2. Scene 3.: "O save her, then, or give me power to save"
3 Act 2. Scene 4.: "The clouds begin to veil the hemisphere"
4 Act 2. Scene 5.: "Or lulled with grief or rapt heer soul to heaven"
5 Act 2. Scene 5.: "O save me, Heaven, in this my perilous hour"
6 Act 2. Scene 5.: "The pilgrim's home, the sick man's health"
7 Act 2. Scene 5.: "Forbid it, Heaven!"
8 Act 2. Scene 5.: "To thee, thou glorious son of wrath"
9 Act 2. Scene 5.: " 'Tis night; but night's sweet blessing is denied"
10 Act 2. Scene 5.: "He saw the lovely youth, death's early prey"
11 Act 3. Scene 1.: "Lord, to Thee, each night and day"
12 Act 3. Scene 1.: "But see, the good, the virtuous Didimus "
13 Act 3. Scene 1.: "Blest be the hand, and blest the power"
14 Act 3. Scene 1.: "Undanted in the court stands Didimus"
15 Act 3. Scene 1.: "Whither, Princess, do you fly?"
16 Act 3. Scene 1.: "She's gone, disdaining liberty and life"
17 Act 3. Scene 2.: "It is a Christian virtue then"
18 Act 3. Scene 2.: "Cease, ye slaves, your fruitless prayer"
19 Act 3. Scene 2.: "Tis kind, my friends, but kinder still"
20 Act 3. Scene 2.: "How strange their ends"
21 Act 3. Scene 2.: "On me your frowns your utmost rage exert"
22 Act 3. Scene 2.: "Streams of pleasure ever flowing"
23 Act 3. Scene 3.: "Ere this their doom is past, and they are gone"
24 Act 3. Scene 3.: "Oh love divine, thou source of fame"
Исполнители:
George Frideric Handel (1685-1759) - Theodora, HWV 68
Heather Harper (Soprano)
Maureen Lehane (Contralto)
Maureen Forrester (Contralto)
Alexander Young (Tenor)
Edgar Fleet (Tenor)
John Lawrenson (Baritone)
Amor Artis Chorale
English Chamber Orchestra
Johannes Somary

Лог создания рипа

CD1

Exact Audio Copy V1.0 beta 3 from 29. August 2011
EAC extraction logfile from 28. November 2013, 13:14
Handel / Theodora, Somary 1990 CD1
Used drive : HL-DT-STDVD-RAM GSA-H55N Adapter: 0 ID: 0
Read mode : Secure
Utilize accurate stream : Yes
Defeat audio cache : Yes
Make use of C2 pointers : No
Read offset correction : 102
Overread into Lead-In and Lead-Out : No
Fill up missing offset samples with silence : Yes
Delete leading and trailing silent blocks : No
Null samples used in CRC calculations : Yes
Used interface : Native Win32 interface for Win NT & 2000
Used output format : User Defined Encoder
Selected bitrate : 768 kBit/s
Quality : High
Add ID3 tag : No
Command line compressor : C:\Program Files\Exact Audio Copy\FLAC\FLAC.EXE
Additional command line options : -6 -V -T "ARTIST=%artist%" -T "TITLE=%title%" -T "ALBUM=%albumtitle%" -T "DATE=%year%" -T "TRACKNUMBER=%tracknr%" -T "GENRE=%genre%" -T "COMMENT=%comment%" -T "BAND=%albuminterpret%" -T "ALBUMARTIST=%albuminterpret%" -T "COMPOSER=%composer%" %haslyrics%--tag-from-file=LYRICS="%lyricsfile%"%haslyrics% -T "DISCNUMBER=%cdnumber%" -T "TOTALDISCS=%totalcds%" -T "TOTALTRACKS=%numtracks%" %hascover%--picture="%coverfile%"%hascover% %source% -o %dest%
TOC of the extracted CD
Track | Start | Length | Start sector | End sector
---------------------------------------------------------
1 | 0:00.15 | 3:58.35 | 15 | 17899
2 | 3:58.50 | 5:05.60 | 17900 | 40834
3 | 9:04.35 | 3:10.20 | 40835 | 55104
4 | 12:14.55 | 2:56.23 | 55105 | 68327
5 | 15:11.03 | 5:08.52 | 68328 | 91479
6 | 20:19.55 | 4:46.35 | 91480 | 112964
7 | 25:06.15 | 5:32.30 | 112965 | 137894
8 | 30:38.45 | 0:37.13 | 137895 | 140682
9 | 31:15.58 | 4:03.07 | 140683 | 158914
10 | 35:18.65 | 4:39.45 | 158915 | 179884
11 | 39:58.35 | 2:05.48 | 179885 | 189307
12 | 42:04.08 | 1:15.52 | 189308 | 194984
13 | 43:19.60 | 4:05.63 | 194985 | 213422
14 | 47:25.48 | 0:49.07 | 213423 | 217104
15 | 48:14.55 | 2:34.43 | 217105 | 228697
16 | 50:49.23 | 6:16.60 | 228698 | 256957
17 | 57:06.08 | 1:47.17 | 256958 | 264999
18 | 58:53.25 | 2:29.15 | 265000 | 276189
19 | 61:22.40 | 2:28.58 | 276190 | 287347
20 | 63:51.23 | 1:36.60 | 287348 | 294607
21 | 65:28.08 | 4:52.20 | 294608 | 316527
22 | 70:20.28 | 2:26.00 | 316528 | 327477
23 | 72:46.28 | 4:08.62 | 327478 | 346139
Range status and errors
Selected range
Filename L:\04 NAAR RUTRACKER\Handel - Theodora, Somary 1990 CD1.wav
Peak level 93.3 %
Extraction speed 3.1 X
Range quality 100.0 %
Test CRC 5497E1B6
Copy CRC 5497E1B6
Copy OK
No errors occurred
AccurateRip summary
Track 1 cannot be verified as accurate (confidence 5) [C95AF389], AccurateRip returned [C3AF63EA] (AR v2)
Track 2 cannot be verified as accurate (confidence 5) [D0D9FDD3], AccurateRip returned [B19A82A2] (AR v2)
Track 3 cannot be verified as accurate (confidence 5) [D15DB542], AccurateRip returned [FDF6B4A7] (AR v2)
Track 4 cannot be verified as accurate (confidence 5) [9EED3668], AccurateRip returned [4425411A] (AR v2)
Track 5 cannot be verified as accurate (confidence 5) [A658AE6E], AccurateRip returned [0C529C81] (AR v2)
Track 6 cannot be verified as accurate (confidence 5) [952ECF2C], AccurateRip returned [877A65FC] (AR v2)
Track 7 cannot be verified as accurate (confidence 5) [53D7AA10], AccurateRip returned [0EE88A25] (AR v2)
Track 8 cannot be verified as accurate (confidence 5) [09E11094], AccurateRip returned [951068D7] (AR v2)
Track 9 cannot be verified as accurate (confidence 5) [DAE0BC27], AccurateRip returned [2B4860EB] (AR v2)
Track 10 cannot be verified as accurate (confidence 5) [F0A80F87], AccurateRip returned [92F6E8DF] (AR v2)
Track 11 cannot be verified as accurate (confidence 5) [224C29C2], AccurateRip returned [2FE00A3E] (AR v2)
Track 12 cannot be verified as accurate (confidence 5) [46BA3BBC], AccurateRip returned [D6D0178D] (AR v2)
Track 13 cannot be verified as accurate (confidence 5) [CB321B30], AccurateRip returned [CFC126A9] (AR v2)
Track 14 cannot be verified as accurate (confidence 5) [F2890569], AccurateRip returned [89EFDF58] (AR v2)
Track 15 cannot be verified as accurate (confidence 5) [3D97DAD2], AccurateRip returned [6AC2D5C5] (AR v2)
Track 16 cannot be verified as accurate (confidence 5) [FFF782FA], AccurateRip returned [43D180D7] (AR v2)
Track 17 cannot be verified as accurate (confidence 5) [FF8150A9], AccurateRip returned [FFF13E8B] (AR v2)
Track 18 cannot be verified as accurate (confidence 5) [4B3545E4], AccurateRip returned [2278E70D] (AR v2)
Track 19 cannot be verified as accurate (confidence 5) [971C2E23], AccurateRip returned [5A040E36] (AR v2)
Track 20 cannot be verified as accurate (confidence 5) [392871AE], AccurateRip returned [AF9D8A41] (AR v2)
Track 21 cannot be verified as accurate (confidence 5) [A84994FB], AccurateRip returned [D634A9BF] (AR v2)
Track 22 cannot be verified as accurate (confidence 5) [C2E15421], AccurateRip returned [E9D531B5] (AR v2)
Track 23 cannot be verified as accurate (confidence 5) [4F2DBE7E], AccurateRip returned [1EAD7DD7] (AR v2)
No tracks could be verified as accurate
You may have a different pressing from the one(s) in the database
End of status report
---- CUETools DB Plugin V2.1.3
[CTDB TOCID: P_mWJqJOVsVRIxK7o_Bz2XezpkQ-] disk not present in database, Submit result: discs with pregaps not supported in this protocol version
==== Log checksum FCE655C1692919561DB000F85FEED98130220E5FE179CB77AC330A3E9B7D58D2 ====

CD2

Exact Audio Copy V1.0 beta 3 from 29. August 2011
EAC extraction logfile from 28. November 2013, 13:53
Handel / Theodora, Somary 1990 CD2
Used drive : TSSTcorpCDDVDW SE-208AB Adapter: 1 ID: 0
Read mode : Secure
Utilize accurate stream : Yes
Defeat audio cache : Yes
Make use of C2 pointers : No
Read offset correction : 6
Overread into Lead-In and Lead-Out : No
Fill up missing offset samples with silence : Yes
Delete leading and trailing silent blocks : No
Null samples used in CRC calculations : Yes
Used interface : Native Win32 interface for Win NT & 2000
Used output format : User Defined Encoder
Selected bitrate : 768 kBit/s
Quality : High
Add ID3 tag : No
Command line compressor : C:\Program Files\Exact Audio Copy\FLAC\FLAC.EXE
Additional command line options : -6 -V -T "ARTIST=%artist%" -T "TITLE=%title%" -T "ALBUM=%albumtitle%" -T "DATE=%year%" -T "TRACKNUMBER=%tracknr%" -T "GENRE=%genre%" -T "COMMENT=%comment%" -T "BAND=%albuminterpret%" -T "ALBUMARTIST=%albuminterpret%" -T "COMPOSER=%composer%" %haslyrics%--tag-from-file=LYRICS="%lyricsfile%"%haslyrics% -T "DISCNUMBER=%cdnumber%" -T "TOTALDISCS=%totalcds%" -T "TOTALTRACKS=%numtracks%" %hascover%--picture="%coverfile%"%hascover% %source% -o %dest%
TOC of the extracted CD
Track | Start | Length | Start sector | End sector
---------------------------------------------------------
1 | 0:00.10 | 5:37.18 | 10 | 25302
2 | 5:37.28 | 0:43.15 | 25303 | 28542
3 | 6:20.43 | 8:12.67 | 28543 | 65509
4 | 14:33.35 | 3:29.70 | 65510 | 81254
5 | 18:03.30 | 1:15.38 | 81255 | 86917
6 | 19:18.68 | 1:58.67 | 86918 | 95834
7 | 21:17.60 | 2:00.05 | 95835 | 104839
8 | 23:17.65 | 5:08.30 | 104840 | 127969
9 | 28:26.20 | 0:42.05 | 127970 | 131124
10 | 29:08.25 | 6:38.28 | 131125 | 161002
11 | 35:46.53 | 6:30.52 | 161003 | 190304
12 | 42:17.30 | 0:43.15 | 190305 | 193544
13 | 43:00.45 | 3:21.35 | 193545 | 208654
14 | 46:22.05 | 1:52.68 | 208655 | 217122
15 | 48:14.73 | 1:43.72 | 217123 | 224919
16 | 49:58.70 | 0:33.58 | 224920 | 227452
17 | 50:32.53 | 7:40.20 | 227453 | 261972
18 | 58:12.73 | 1:19.65 | 261973 | 267962
19 | 59:32.63 | 1:13.50 | 267963 | 273487
20 | 60:46.38 | 3:31.42 | 273488 | 289354
21 | 64:18.05 | 1:44.48 | 289355 | 297202
22 | 66:02.53 | 5:31.37 | 297203 | 322064
23 | 71:34.15 | 0:24.73 | 322065 | 323937
24 | 71:59.13 | 3:51.72 | 323938 | 341334
Range status and errors
Selected range
Filename L:\04 NAAR RUTRACKER\Handel - Theodora, Somary 1990 CD2.wav
Peak level 90.5 %
Extraction speed 5.0 X
Range quality 100.0 %
Test CRC 49562DC4
Copy CRC 49562DC4
Copy OK
No errors occurred
AccurateRip summary
Track 1 accurately ripped (confidence 2) [A69C239E] (AR v1)
Track 2 accurately ripped (confidence 2) [5F0695CC] (AR v1)
Track 3 accurately ripped (confidence 2) [AF3BD57B] (AR v1)
Track 4 accurately ripped (confidence 2) [5546C753] (AR v1)
Track 5 accurately ripped (confidence 2) [DD390E58] (AR v1)
Track 6 accurately ripped (confidence 2) [A002B24C] (AR v1)
Track 7 accurately ripped (confidence 2) [1C100C60] (AR v1)
Track 8 accurately ripped (confidence 2) [7A31594D] (AR v1)
Track 9 accurately ripped (confidence 2) [478F3474] (AR v1)
Track 10 accurately ripped (confidence 2) [8A7A38A1] (AR v1)
Track 11 accurately ripped (confidence 2) [4E158429] (AR v1)
Track 12 accurately ripped (confidence 2) [9E3A779B] (AR v1)
Track 13 accurately ripped (confidence 2) [949DB2AE] (AR v1)
Track 14 accurately ripped (confidence 2) [8BC83EB9] (AR v1)
Track 15 accurately ripped (confidence 2) [08EE49EA] (AR v1)
Track 16 accurately ripped (confidence 2) [4C5DED54] (AR v1)
Track 17 accurately ripped (confidence 2) [B9B6545F] (AR v1)
Track 18 accurately ripped (confidence 2) [8FF5A028] (AR v1)
Track 19 accurately ripped (confidence 2) [158C5B60] (AR v1)
Track 20 accurately ripped (confidence 2) [E7A4C643] (AR v1)
Track 21 accurately ripped (confidence 2) [5F73FB8F] (AR v1)
Track 22 accurately ripped (confidence 2) [04681A43] (AR v1)
Track 23 accurately ripped (confidence 2) [808D5F3F] (AR v1)
Track 24 accurately ripped (confidence 2) [9DC74046] (AR v1)
All tracks accurately ripped
End of status report
---- CUETools DB Plugin V2.1.3
[CTDB TOCID: bZJvSK0I2l1jvQJWtX8LyD_5AIo-] disk not present in database, Submit result: discs with pregaps not supported in this protocol version
==== Log checksum 6A6950213BA2026815323A600610515DAA871AF7A864138C9AC0A436D2E0B6FD ====

Содержание индексной карты (.CUE)

CD1

REM GENRE Oratorio
REM DATE 1990
REM DISCID 3C120717
REM COMMENT "ExactAudioCopy v1.0b3"
PERFORMER "Handel"
TITLE "Theodora, Somary 1990 CD1"
FILE "Handel - Theodora, Somary 1990 CD1.flac" WAVE
TRACK 01 AUDIO
TITLE "Ouverture"
PERFORMER "Handel"
INDEX 00 00:00:00
INDEX 01 00:00:15
TRACK 02 AUDIO
TITLE "Act 1 - Valens; Recitative, Aria,Chorus"
PERFORMER "Handel"
INDEX 01 03:58:50
TRACK 03 AUDIO
TITLE "Didimus - Recitative , Aria"
PERFORMER "Handel"
INDEX 01 09:04:35
TRACK 04 AUDIO
TITLE "Chorus"
PERFORMER "Handel"
INDEX 01 12:14:55
TRACK 05 AUDIO
TITLE "Didimus - Recitative, Aria"
PERFORMER "Handel"
INDEX 01 15:11:03
TRACK 06 AUDIO
TITLE "Septimius - Recitative, Aria"
PERFORMER "Handel"
INDEX 01 20:19:55
TRACK 07 AUDIO
TITLE "Theodora - Recitative, Aria"
PERFORMER "Handel"
INDEX 01 25:06:15
TRACK 08 AUDIO
TITLE "Irene - Recitaive"
PERFORMER "Handel"
INDEX 01 30:38:45
TRACK 09 AUDIO
TITLE "Chorus"
PERFORMER "Handel"
INDEX 01 31:15:58
TRACK 10 AUDIO
TITLE "Messenger - Recitative, Irene - Recitative, Aria"
PERFORMER "Handel"
INDEX 01 35:18:65
TRACK 11 AUDIO
TITLE "Chorus"
PERFORMER "Handel"
INDEX 01 39:58:35
TRACK 12 AUDIO
TITLE "Septimius - Recitative, Aria"
PERFORMER "Handel"
INDEX 01 42:04:08
TRACK 13 AUDIO
TITLE "Theodora - Recitative, Aria"
PERFORMER "Handel"
INDEX 01 43:19:60
TRACK 14 AUDIO
TITLE "Didimus, Irene - Recitative"
PERFORMER "Handel"
INDEX 01 47:25:48
TRACK 15 AUDIO
TITLE "Didimus - Aria"
PERFORMER "Handel"
INDEX 01 48:14:55
TRACK 16 AUDIO
TITLE "Irene - Recitative, Chorus"
PERFORMER "Handel"
INDEX 01 50:49:23
TRACK 17 AUDIO
TITLE "Act 2 - Valens -recitative, Aria"
PERFORMER "Handel"
INDEX 01 57:06:08
TRACK 18 AUDIO
TITLE "Valens - Aria"
PERFORMER "Handel"
INDEX 01 58:53:25
TRACK 19 AUDIO
TITLE "Valens - Recitative, Aria"
PERFORMER "Handel"
INDEX 01 61:22:40
TRACK 20 AUDIO
TITLE "Symphony"
PERFORMER "Handel"
INDEX 01 63:51:23
TRACK 21 AUDIO
TITLE "Theodora - Recitative, Aria"
PERFORMER "Handel"
INDEX 01 65:28:08
TRACK 22 AUDIO
TITLE "Symphony"
PERFORMER "Handel"
INDEX 01 70:20:28
TRACK 23 AUDIO
TITLE "Theodora - Recitative, Aria"
PERFORMER "Handel"
INDEX 01 72:46:28

CD2

REM GENRE Oratorio
REM DATE 1990
REM DISCID 7F11C718
REM COMMENT "ExactAudioCopy v1.0b3"
PERFORMER "Handel"
TITLE "Theodora, Somary 1990 CD2"
FILE "Handel - Theodora, Somary 1990 CD2.flac" WAVE
TRACK 01 AUDIO
TITLE "Act 2 - Didimus -Recitative, Septimius - Recitative, Aria"
PERFORMER "Handel"
INDEX 00 00:00:00
INDEX 01 00:00:10
TRACK 02 AUDIO
TITLE "Didimus, Septimius - Recitative"
PERFORMER "Handel"
INDEX 01 05:37:28
TRACK 03 AUDIO
TITLE "Irene - Recitative, Aria"
PERFORMER "Handel"
INDEX 01 06:20:43
TRACK 04 AUDIO
TITLE "Didimus - Recitative, Aria"
PERFORMER "Handel"
INDEX 01 14:33:35
TRACK 05 AUDIO
TITLE "Theodora, Didimus - Recitative"
PERFORMER "Handel"
INDEX 01 18:03:30
TRACK 06 AUDIO
TITLE "Theodora - Aria"
PERFORMER "Handel"
INDEX 01 19:18:68
TRACK 07 AUDIO
TITLE "Didimus, Theodora - Recitative"
PERFORMER "Handel"
INDEX 01 21:17:60
TRACK 08 AUDIO
TITLE "Theodora, Didimus - Duet"
PERFORMER "Handel"
INDEX 01 23:17:65
TRACK 09 AUDIO
TITLE "Irene - Recitative"
PERFORMER "Handel"
INDEX 01 28:26:20
TRACK 10 AUDIO
TITLE "Chorus"
PERFORMER "Handel"
INDEX 01 29:08:25
TRACK 11 AUDIO
TITLE "Act 3 - Irene - Recitative"
PERFORMER "Handel"
INDEX 01 35:46:53
TRACK 12 AUDIO
TITLE "Irene, Theodora - Recitative"
PERFORMER "Handel"
INDEX 01 42:17:30
TRACK 13 AUDIO
TITLE "Chorus"
PERFORMER "Handel"
INDEX 01 43:00:45
TRACK 14 AUDIO
TITLE "Messenger, Irene, Theodora - Recitative"
PERFORMER "Handel"
INDEX 01 46:22:05
TRACK 15 AUDIO
TITLE "Irene, Theodora - Duet"
PERFORMER "Handel"
INDEX 01 48:14:73
TRACK 16 AUDIO
TITLE "Irene - Recitative"
PERFORMER "Handel"
INDEX 01 49:58:70
TRACK 17 AUDIO
TITLE "Valens, Didimus, Theodora, Septimius - Recitative; Septimius - Aria"
PERFORMER "Handel"
INDEX 01 50:32:53
TRACK 18 AUDIO
TITLE "Valens - Aria"
PERFORMER "Handel"
INDEX 01 58:12:73
TRACK 19 AUDIO
TITLE "Didimus, Theodora - Recitative"
PERFORMER "Handel"
INDEX 01 59:32:63
TRACK 20 AUDIO
TITLE "Chorus"
PERFORMER "Handel"
INDEX 01 60:46:38
TRACK 21 AUDIO
TITLE "Didimus, Theodora, Valens, Septimius - Recitative"
PERFORMER "Handel"
INDEX 01 64:18:05
TRACK 22 AUDIO
TITLE "Didimus, Theodora - Duet"
PERFORMER "Handel"
INDEX 01 66:02:53
TRACK 23 AUDIO
TITLE "Irene - Recitative"
PERFORMER "Handel"
INDEX 01 71:34:15
TRACK 24 AUDIO
TITLE "Chorus"
PERFORMER "Handel"
INDEX 01 71:59:13
Доп. информация:
Handel wrote Theodora during his last period of composition.
He was sixty-four years old when he began working on it in June 1749.
He had written the oratorios Solomon and Susanna the previous year.
Theodora would be his penultimate oratorio.
Theodora differs from the former two oratorios because it is a tragedy, ending in the death of the heroine and her converted lover.
The music is much more direct than the earlier works, transcending the mediocrity of the libretto (which was true for several of Handel's works) so that the characters and the drama are well-defined.
Thomas Morell (1703–1784) had worked with Handel before on several oratorios.
He and Handel were good friends; the composer left the librettist 200 pounds in his will.
Morell's source for the libretto was The Martyrdom of Theodora and of Didymus (1687) by Robert Boyle, the scientist.
He also borrowed from Corneille's Théodore, Vierge et Martyre.
Morell arguably improved on Boyle, eliminating the moralising messages and creating a better structure.
Handel finished the oratorio on 31 July 1749, and its premiere was on 16 March 1750. Pityingly, Theodora was a failure and only played three times.
There are at least two explanations for this.
First, the theme of persecution may have been too "progressive" for Londoners at the time.
Secondly,an earthquake that transpired about a week before the premiere had prevented some of the city's nobility from coming.
It was the least performed of all his oratorios, being revived only once in 1755.
There are two surviving quotes of Handel about Theodora.
Morell quotes Handel as saying "The Jews will not come to it because it is a Christian story; and the ladies will not come because it is a virtuous one."
Handel's colleague Burney took note when two musicians asked for free tickets for Messiah and Handel responded "Oh your servant, meine Herren! you are damnable dainty! you would not go to Theodora - there was room enough to dance there, when that was perform"!
Theodora was actually Handel's favorite of his oratorios.
[teatrix.ru].t17917.torrent 
Торрент: Зарегистрирован [ 2016-03-17 00:47 ] · 5461E955C884349DC1CC4A742A637544BA0574DD

Скачать .torrent

Скачать

15 KB

Статус: проверено
Скачан: 1 раз
Размер: 700 MB
terms.php



Быстрый ответ

Имя:

      
Для отправки сообщений необходимо включить JavaScript
Показать сообщения:    

Текущее время: 09-Дек 10:51

Часовой пояс: UTC + 3


Вы можете начинать темы
Вы можете отвечать на сообщения
Вы не можете редактировать свои сообщения
Вы не можете удалять свои сообщения
Вы не можете голосовать в опросах
Вы не можете прикреплять файлы к сообщениям
Вы можете скачивать файлы