(Classical, contemporary) Rene Clausen - Life and Breath: Choral works - Kansas City Chorale, Charles Bruffy - 2012, FLAC (image+.cue) lossless


Статистика раздачи [Обновить пиров]
Размер:  219 MB   |    Зарегистрирован:  10 месяцев 6 дней   |    Скачан:  0 раз

Полного источника не было: Никогда

 
   
 
 
 

[Цитировать]

René Clausen - Life and Breath: Choral works - Kansas City Chorale, Charles Bruffy
Жанр: Classical, contemporary
Страна-производитель диска: UK
Год издания диска: 2012
Издатель (лейбл): Chandos Records
Номер по каталогу: CHSA 5105
Дата записи: 2011
Аудиокодек: FLAC
Тип рипа: image+.cue
Битрейт аудио: lossless
Продолжительность: 62:25
Источник: собственный рип
Наличие сканов в содержимом раздачи: да
Треклист:
René Clausen (b. 1953)
[1] All that hath life and breath, praise ye the Lord (1978)
Sarah Tannehill soprano
[2] O magnum mysterium (2009)
Pamela Williamson soprano
[3] The Tyger (2009)
Rebecca Lloyd soprano
[4] The Lamb (2009)
Lindsey Lang soprano
premiere recording
[5]-[9] Mass for Double Choir (2011)
Sarah Tannehill soprano
Pamela Williamson soprano
[10] Magnificat (1988)
Pamela Williamson soprano
[11] Prayer (2009)
[12] O vos omnes (1986)
for Double Choir
Sarah Tannehill soprano
Matthew Gladden tenor
[13] Set me as a seal (1989)
from A New Creation
Исполнители:
Kansas City Chorale
Charles Bruffy

Лог создания рипа

Exact Audio Copy V1.0 beta 3 from 29. August 2011
EAC extraction logfile from 6. November 2013, 12:42
Kansas City Chorale, Charles Bruffy / Clausen - Choral Works
Used drive : HL-DT-STDVDRRW GWA-4164B Adapter: 5 ID: 0
Read mode : Secure
Utilize accurate stream : Yes
Defeat audio cache : Yes
Make use of C2 pointers : No
Read offset correction : 102
Overread into Lead-In and Lead-Out : No
Fill up missing offset samples with silence : Yes
Delete leading and trailing silent blocks : No
Null samples used in CRC calculations : Yes
Used interface : Native Win32 interface for Win NT & 2000
Used output format : User Defined Encoder
Selected bitrate : 896 kBit/s
Quality : High
Add ID3 tag : No
Command line compressor : C:\Program Files\Exact Audio Copy\FLAC\FLAC.EXE
Additional command line options : -V -8 %source%
TOC of the extracted CD
Track | Start | Length | Start sector | End sector
---------------------------------------------------------
1 | 0:00.00 | 3:29.38 | 0 | 15712
2 | 3:29.38 | 3:45.25 | 15713 | 32612
3 | 7:14.63 | 2:52.20 | 32613 | 45532
4 | 10:07.08 | 4:53.30 | 45533 | 67537
5 | 15:00.38 | 4:02.10 | 67538 | 85697
6 | 19:02.48 | 4:48.15 | 85698 | 107312
7 | 23:50.63 | 7:59.10 | 107313 | 143247
8 | 31:49.73 | 2:04.40 | 143248 | 152587
9 | 33:54.38 | 6:18.65 | 152588 | 181002
10 | 40:13.28 | 6:23.20 | 181003 | 209747
11 | 46:36.48 | 4:30.65 | 209748 | 230062
12 | 51:07.38 | 8:15.10 | 230063 | 267197
13 | 59:22.48 | 3:02.27 | 267198 | 280874
Range status and errors
Selected range
Filename D:\temp\Music\CHSA_05105 - Clausen - Choral Works - Kansas City Chorale, Charles Bruffy\Clausen - Choral Works.wav
Peak level 96.1 %
Extraction speed 3.4 X
Range quality 100.0 %
Test CRC F65816AB
Copy CRC F65816AB
Copy OK
No errors occurred
AccurateRip summary
Track 1 accurately ripped (confidence 1) [EE807236] (AR v2)
Track 2 accurately ripped (confidence 1) [570D1BE3] (AR v2)
Track 3 accurately ripped (confidence 1) [332BEA31] (AR v2)
Track 4 accurately ripped (confidence 1) [872BD7D2] (AR v2)
Track 5 accurately ripped (confidence 1) [C86FE8E2] (AR v2)
Track 6 accurately ripped (confidence 1) [94C85E59] (AR v2)
Track 7 accurately ripped (confidence 1) [56B35C1D] (AR v2)
Track 8 accurately ripped (confidence 1) [B6F2BC7A] (AR v2)
Track 9 accurately ripped (confidence 1) [FEB98AB9] (AR v2)
Track 10 accurately ripped (confidence 1) [7AC6C02C] (AR v2)
Track 11 accurately ripped (confidence 1) [CD783D0B] (AR v2)
Track 12 accurately ripped (confidence 1) [1FE6C118] (AR v2)
Track 13 accurately ripped (confidence 1) [B14F1DA8] (AR v2)
All tracks accurately ripped
End of status report
==== Log checksum 49D05927A3B608303E61F2E27341131AA34BFB4B89E24FCF8A6C93A51BD99BED ====
[teatrix.ru].t17918.torrent 
Торрент: Зарегистрирован [ 2016-03-17 00:47 ] · 8112C64FCB545E1266AE8BD4E540A1A226AA5313

Скачать .torrent

Скачать

35 KB

Статус: проверено
Скачан: 0 раз
Размер: 219 MB
terms.php



Быстрый ответ

Имя:

      
Для отправки сообщений необходимо включить JavaScript
Показать сообщения:    

Текущее время: 24-Янв 00:01

Часовой пояс: UTC + 3


Вы можете начинать темы
Вы можете отвечать на сообщения
Вы не можете редактировать свои сообщения
Вы не можете удалять свои сообщения
Вы не можете голосовать в опросах
Вы не можете прикреплять файлы к сообщениям
Вы можете скачивать файлы