(Classical, Baroque) O Cieco Mondo: The Italian Lauda c. 1400-1700 (Paul van Nevel, Huelgas Ensemble) - 2011, FLAC (image+.cue) lossless


 

[Цитировать]

O Cieco Mondo: The Italian Lauda c. 1400-1700 (Paul van Nevel, Huelgas Ensemble)
Жанр: Classical, Baroque
Год издания диска: 2011
Издатель (лейбл): Deutsche Harmonia Mundi
Номер по каталогу: DHM 88697 97450 2
Аудиокодек: FLAC
Тип рипа: image+.cue
Битрейт аудио: lossless
Продолжительность: 60:54
Источник: собственный рип
Наличие сканов в содержимом раздачи: да
Треклист:
01. Alexander Demophon Venetus: Volgi gli ochi, o madre pia
02. Anonymous: Ave corpus vere natum
03. Anonymous: Dolor pianto
04. Anonymous: Ave maris stella (instrumental)
05. Francesco Landini: Io ti lascio
06. Anonymous: Signor per la tua fe
07. Anonymous: Helas me celes (instrumental)
08. Anonymous: Chi c'insegna ov'è Gesù? - Nell' arrivare alla Chiesa
09. Jacopo da Bologna: O cieco mondo
10. Anonymous: Chi vol seguir la guerra
11. Anonymous: Che bella vit'ha'l mond'un villanello
12. Falso-Bordone, version de Vicennzo Ruffo: Sequenza de morti
13. Anonymous: Plus sui en bone compagnie
14. Anonymous: Alma che scarca dal corporeo velo
Исполнители:
Huelgas Ensemble
Musical direction: Paul van Nevel

LOG EAC

Exact Audio Copy V1.0 beta 3 from 29. August 2011
EAC extraction logfile from 2. December 2013, 14:16
Paul van Nevel, Huelgas Ensemble / O Cieco Mondo
Used drive : PIONEER DVD-RW DVR-218L Adapter: 0 ID: 1
Read mode : Secure
Utilize accurate stream : Yes
Defeat audio cache : Yes
Make use of C2 pointers : No
Read offset correction : 6
Overread into Lead-In and Lead-Out : No
Fill up missing offset samples with silence : Yes
Delete leading and trailing silent blocks : No
Null samples used in CRC calculations : Yes
Used interface : Native Win32 interface for Win NT & 2000
Used output format : User Defined Encoder
Selected bitrate : 128 kBit/s
Quality : High
Add ID3 tag : No
Command line compressor : C:\Program Files\Exact Audio Copy\Flac\flac.exe
Additional command line options : -V -8 -T "Date=%year%" -T "Genre=%genre%" %source%
TOC of the extracted CD
Track | Start | Length | Start sector | End sector
---------------------------------------------------------
1 | 0:00.00 | 5:27.47 | 0 | 24571
2 | 5:27.47 | 2:36.65 | 24572 | 36336
3 | 8:04.37 | 5:07.50 | 36337 | 59411
4 | 13:12.12 | 2:52.65 | 59412 | 72376
5 | 16:05.02 | 5:46.60 | 72377 | 98386
6 | 21:51.62 | 4:03.25 | 98387 | 116636
7 | 25:55.12 | 3:20.15 | 116637 | 131651
8 | 29:15.27 | 7:19.00 | 131652 | 164576
9 | 36:34.27 | 5:48.35 | 164577 | 190711
10 | 42:22.62 | 2:33.00 | 190712 | 202186
11 | 44:55.62 | 3:12.60 | 202187 | 216646
12 | 48:08.47 | 3:26.15 | 216647 | 232111
13 | 51:34.62 | 4:30.35 | 232112 | 252396
14 | 56:05.22 | 4:48.68 | 252397 | 274064
Range status and errors
Selected range
Filename C:\O Cieco Mondo.wav
Peak level 95.6 %
Extraction speed 1.9 X
Range quality 100.0 %
Test CRC 073C5C0A
Copy CRC 073C5C0A
Copy OK
No errors occurred
End of status report
==== Log checksum 549287752A5C7601B6C2D1828BFAEBF061C5F5BBCF78FD0F71B79701EF6185BB ====

Содержание индексной карты (.CUE)

REM GENRE Classical
REM DATE 1989
REM DISCID EB0E460E
REM COMMENT "ExactAudioCopy v1.0b3"
PERFORMER "Paul van Nevel, Huelgas Ensemble"
TITLE "O Cieco Mondo"
FILE "O Cieco Mondo.Flac" WAVE
TRACK 01 AUDIO
TITLE "Alexander Demophon Venetus: Volgi gli ochi, o madre pia"
PERFORMER "Paul van Nevel, Huelgas Ensemble"
INDEX 01 00:00:00
TRACK 02 AUDIO
TITLE "Anonymous: Ave corpus vere natum"
PERFORMER "Paul van Nevel, Huelgas Ensemble"
INDEX 00 05:25:06
INDEX 01 05:27:47
TRACK 03 AUDIO
TITLE "Anonymous: Dolor pianto"
PERFORMER "Paul van Nevel, Huelgas Ensemble"
INDEX 00 08:02:03
INDEX 01 08:04:37
TRACK 04 AUDIO
TITLE "Anonymous: Ave maris stella"
PERFORMER "Paul van Nevel, Huelgas Ensemble"
INDEX 00 13:10:06
INDEX 01 13:12:12
TRACK 05 AUDIO
TITLE "Francesco Landini: Io ti lascio"
PERFORMER "Paul van Nevel, Huelgas Ensemble"
INDEX 00 16:03:54
INDEX 01 16:05:02
TRACK 06 AUDIO
TITLE "Anonymous: Signor per la tua fe"
PERFORMER "Paul van Nevel, Huelgas Ensemble"
INDEX 00 21:49:05
INDEX 01 21:51:62
TRACK 07 AUDIO
TITLE "Anonymous: Helas me celes"
PERFORMER "Paul van Nevel, Huelgas Ensemble"
INDEX 00 25:53:04
INDEX 01 25:55:12
TRACK 08 AUDIO
TITLE "Anonymous: Chi c'insegna ov'e Gesu"
PERFORMER "Paul van Nevel, Huelgas Ensemble"
INDEX 00 29:12:08
INDEX 01 29:15:27
TRACK 09 AUDIO
TITLE "Jacopo da Bologna: O cieco mondo"
PERFORMER "Paul van Nevel, Huelgas Ensemble"
INDEX 00 36:29:02
INDEX 01 36:34:27
TRACK 10 AUDIO
TITLE "Anonymous: Chi vol seguir la guerra"
PERFORMER "Paul van Nevel, Huelgas Ensemble"
INDEX 00 42:17:58
INDEX 01 42:22:62
TRACK 11 AUDIO
TITLE "Anonymous: Che bella vit'ha'l mond'un villanello"
PERFORMER "Paul van Nevel, Huelgas Ensemble"
INDEX 00 44:51:00
INDEX 01 44:55:62
TRACK 12 AUDIO
TITLE "Vincenzo Ruffo: Sequenza dei morti"
PERFORMER "Paul van Nevel, Huelgas Ensemble"
INDEX 00 48:05:01
INDEX 01 48:08:47
TRACK 13 AUDIO
TITLE "Anonymous: Plus sui en bone compagnie"
PERFORMER "Paul van Nevel, Huelgas Ensemble"
INDEX 00 51:30:00
INDEX 01 51:34:62
TRACK 14 AUDIO
TITLE "Anonymous: Alma che scarca dal corporeo velo"
PERFORMER "Paul van Nevel, Huelgas Ensemble"
INDEX 00 56:03:02
INDEX 01 56:05:22
Доп. информация: The Huelgas Ensemble is a Belgian early music group formed by the Flemish conductor Paul Van Nevel in 1971. The group's performance and extensive discography focuses on renaissance polyphony. The name of the ensemble refers to a manuscript of polyphonic music, the Codex Las Huelgas.
Nevel is noted for his style of performing many pieces with the singers and himself in a large circle, rotating, both in live performances (such as at the Rheingau Musik Festival where the pews had to be unbolted from the floor of the Basilika of Schloss Johannisberg in 2005), and in recordings around the microphone hovering above the center.
mp3



Показать сообщения:    

Текущее время: 09-Дек 12:40

Часовой пояс: UTC + 3


Вы не можете начинать темы
Вы не можете отвечать на сообщения
Вы не можете редактировать свои сообщения
Вы не можете удалять свои сообщения
Вы не можете голосовать в опросах
Вы не можете прикреплять файлы к сообщениям
Вы не можете скачивать файлы