(Classical, Baroque) Giulio Caccini - Le Nuove Musiche, E Nuova Maniera di Scriverle (Montserrat Figueras, Jordi Savall) - 2011, FLAC (image+.cue) lossless


 

[Цитировать]

Giulio Caccini - Le Nuove Musiche, E Nuova Maniera di Scriverle (Montserrat Figueras, Jordi Savall)
Жанр: Classical, Baroque
Год издания диска: 2011
Издатель (лейбл): Deutsche Harmonia Mundi
Номер по каталогу: DHM 88697 97450 2-9
Аудиокодек: FLAC
Тип рипа: image+.cue
Битрейт аудио: lossless
Продолжительность: 49:14
Источник: собственный рип
Наличие сканов в содержимом раздачи: да
Треклист:
01. Amor ch'attendi (1614)
02. Amor, io parto (1601)
03. Tu ch'hai le penne (1614)
04. Non ha'l ciel (1614)
05. Alme luci beate (1614)
06. Vedrô 'I mio sol (1601)
07. Tutto 'I di piango (1614)
08. Dolcissimo sospiro (1601)
09. Dalle porta d'oriente (1614)
10. Amarilli mia bella (1601)
11. Movetevi à pietà (1601)
12. Belle rose porporine (1601)
13. Queste lagrim' amore (1601)
14. Torna, deh torna (1614)
15. Con le luci d'un bel ciglio (1614)
Исполнители:
Montserrat Figueras, Sopran
Jordi Savall, Viola da Gamba
Hopkinson Smith, Laute, Barockgitarre
Robert Clancy, Barockgitarre, Chitarrone
Xenia Schindler, Harfe

LOG EAC

Exact Audio Copy V1.0 beta 1 from 15. November 2010
EAC extraction logfile from 9. July 2012, 14:27
Montserrat Figueras, Jordi Savall, Hopkinson Smith / Giulio Caccini - Le Nuove Musiche
Used drive : PIONEER DVD-RW DVR-218L Adapter: 1 ID: 0
Read mode : Secure
Utilize accurate stream : Yes
Defeat audio cache : Yes
Make use of C2 pointers : No
Read offset correction : 6
Overread into Lead-In and Lead-Out : No
Fill up missing offset samples with silence : Yes
Delete leading and trailing silent blocks : No
Null samples used in CRC calculations : Yes
Used interface : Native Win32 interface for Win NT & 2000
Used output format : User Defined Encoder
Selected bitrate : 192 kBit/s
Quality : High
Add ID3 tag : No
Command line compressor : C:\Program Files\Exact Audio Copy\Flac\flac.exe
Additional command line options : -T "DATE=%y" -T "GENRE=%m" -8 -V %s
TOC of the extracted CD
Track | Start | Length | Start sector | End sector
---------------------------------------------------------
1 | 0:00.00 | 2:19.40 | 0 | 10464
2 | 2:19.40 | 3:17.40 | 10465 | 25279
3 | 5:37.05 | 3:10.15 | 25280 | 39544
4 | 8:47.20 | 2:41.67 | 39545 | 51686
5 | 11:29.12 | 3:34.48 | 51687 | 67784
6 | 15:03.60 | 3:38.67 | 67785 | 84201
7 | 18:42.52 | 6:53.20 | 84202 | 115196
8 | 25:35.72 | 5:43.38 | 115197 | 140959
9 | 31:19.35 | 1:58.40 | 140960 | 149849
10 | 33:18.00 | 2:17.50 | 149850 | 160174
11 | 35:35.50 | 2:22.65 | 160175 | 170889
12 | 37:58.40 | 2:41.07 | 170890 | 182971
13 | 40:39.47 | 4:19.40 | 182972 | 202436
14 | 44:59.12 | 3:49.15 | 202437 | 219626
15 | 48:48.27 | 1:56.23 | 219627 | 228349
Range status and errors
Selected range
Filename C:\Giulio Caccini - Le Nuove Musiche.wav
Peak level 79.2 %
Extraction speed 0.0 X
Range quality 100.0 %
Test CRC DE62DD8C
Copy CRC DE62DD8C
Copy OK
No errors occurred
AccurateRip summary
Track 1 cannot be verified as accurate (confidence 54) [EF4A46B6], AccurateRip returned [2E083048]
Track 2 cannot be verified as accurate (confidence 54) [608A13B6], AccurateRip returned [15BA3094]
Track 3 cannot be verified as accurate (confidence 54) [09051E41], AccurateRip returned [9EEF1A82]
Track 4 cannot be verified as accurate (confidence 54) [49880043], AccurateRip returned [7E724565]
Track 5 cannot be verified as accurate (confidence 54) [583AF51E], AccurateRip returned [D97F45D7]
Track 6 cannot be verified as accurate (confidence 54) [FB5AF60C], AccurateRip returned [4516C271]
Track 7 cannot be verified as accurate (confidence 54) [8A59754B], AccurateRip returned [CEF93D9B]
Track 8 cannot be verified as accurate (confidence 54) [21707D56], AccurateRip returned [24B263AB]
Track 9 cannot be verified as accurate (confidence 54) [9B34834A], AccurateRip returned [535F09FA]
Track 10 cannot be verified as accurate (confidence 51) [63F63CBB], AccurateRip returned [5A18CD35]
Track 11 cannot be verified as accurate (confidence 54) [9E2563D8], AccurateRip returned [721325AA]
Track 12 cannot be verified as accurate (confidence 54) [ADCB78B9], AccurateRip returned [4C5EC984]
Track 13 cannot be verified as accurate (confidence 54) [3E07B354], AccurateRip returned [AA11A165]
Track 14 cannot be verified as accurate (confidence 54) [7535D408], AccurateRip returned [D3D19E60]
Track 15 cannot be verified as accurate (confidence 53) [C71EDC92], AccurateRip returned [F6716B45]
No tracks could be verified as accurate
You may have a different pressing from the one(s) in the database
End of status report
==== Log checksum 2677E8E3D1880239CDEFD0254E79A764C652998388418538C0D63BA0AE83677F ====

Содержание индексной карты (.CUE)

REM GENRE Classical
REM DATE 1984
REM DISCID AD0BE40F
REM COMMENT "ExactAudioCopy v1.0b1"
PERFORMER "Montserrat Figueras, Jordi Savall, Hopkinson Smith"
TITLE "Giulio Caccini - Le Nuove Musiche"
FILE "Giulio Caccini - Le Nuove Musiche.flac" WAVE
TRACK 01 AUDIO
TITLE "Amor ch'attendi"
PERFORMER "Montserrat Figueras, Jordi Savall, Hopkinson Smith"
INDEX 01 00:00:00
TRACK 02 AUDIO
TITLE "Amor, io parto"
PERFORMER "Montserrat Figueras, Jordi Savall, Hopkinson Smith"
INDEX 00 02:16:50
INDEX 01 02:19:40
TRACK 03 AUDIO
TITLE "Tu ch'hai le penne"
PERFORMER "Montserrat Figueras, Jordi Savall, Hopkinson Smith"
INDEX 00 05:30:50
INDEX 01 05:37:05
TRACK 04 AUDIO
TITLE "Non ha'l ciel"
PERFORMER "Montserrat Figueras, Jordi Savall, Hopkinson Smith"
INDEX 00 08:41:50
INDEX 01 08:47:20
TRACK 05 AUDIO
TITLE "Alme luci beate"
PERFORMER "Montserrat Figueras, Jordi Savall, Hopkinson Smith"
INDEX 00 11:18:50
INDEX 01 11:29:12
TRACK 06 AUDIO
TITLE "Vedro 'I mio sol"
PERFORMER "Montserrat Figueras, Jordi Savall, Hopkinson Smith"
INDEX 00 14:57:50
INDEX 01 15:03:60
TRACK 07 AUDIO
TITLE "Tutto 'I di piango"
PERFORMER "Montserrat Figueras, Jordi Savall, Hopkinson Smith"
INDEX 00 18:33:50
INDEX 01 18:42:52
TRACK 08 AUDIO
TITLE "Dolcissimo sospiro"
PERFORMER "Montserrat Figueras, Jordi Savall, Hopkinson Smith"
INDEX 00 25:30:50
INDEX 01 25:35:72
TRACK 09 AUDIO
TITLE "Dalle porta d'oriente"
PERFORMER "Montserrat Figueras, Jordi Savall, Hopkinson Smith"
INDEX 00 31:13:50
INDEX 01 31:19:35
TRACK 10 AUDIO
TITLE "Amarilli mia bella"
PERFORMER "Montserrat Figueras, Jordi Savall, Hopkinson Smith"
INDEX 00 33:11:50
INDEX 01 33:18:00
TRACK 11 AUDIO
TITLE "Movetevi a pieta"
PERFORMER "Montserrat Figueras, Jordi Savall, Hopkinson Smith"
INDEX 00 35:30:50
INDEX 01 35:35:50
TRACK 12 AUDIO
TITLE "Belle rose porporine"
PERFORMER "Montserrat Figueras, Jordi Savall, Hopkinson Smith"
INDEX 00 37:54:50
INDEX 01 37:58:40
TRACK 13 AUDIO
TITLE "Queste lagrim' amore"
PERFORMER "Montserrat Figueras, Jordi Savall, Hopkinson Smith"
INDEX 00 40:27:50
INDEX 01 40:39:47
TRACK 14 AUDIO
TITLE "Torna, deh torna"
PERFORMER "Montserrat Figueras, Jordi Savall, Hopkinson Smith"
INDEX 00 44:53:50
INDEX 01 44:59:12
TRACK 15 AUDIO
TITLE "Con le luci d'un bel ciglio"
PERFORMER "Montserrat Figueras, Jordi Savall, Hopkinson Smith"
INDEX 00 48:45:50
INDEX 01 48:48:27
mp3



Показать сообщения:    

Текущее время: 11-Дек 10:59

Часовой пояс: UTC + 3


Вы не можете начинать темы
Вы не можете отвечать на сообщения
Вы не можете редактировать свои сообщения
Вы не можете удалять свои сообщения
Вы не можете голосовать в опросах
Вы не можете прикреплять файлы к сообщениям
Вы не можете скачивать файлы