(Vocal/Sacred/Christmas) Ruffini - Notte Stellata A Betlemme (Albertazzi, Rigacci - Coro di Voci Bianche, Guido Monaco / Orchestra Benedetto Marcello, Mario Ruffini) - 1999, FLAC (image+.cue) lossless


 

[Цитировать]

Ruffini - Notte Stellata A Betlemme
Жанр: Vocal/Sacred/Christmas
Страна-производитель диска: Italy
Год издания диска: 1999
Издатель (лейбл): Mondo Musica
Номер по каталогу: MM96127
Дата записи: 1998
Аудиокодек: FLAC
Тип рипа: image+.cue
Битрейт аудио: lossless
Продолжительность: 53'44
Источник: собственный рип
Наличие сканов в содержимом раздачи: да
Треклист:
01. Una notte stellata
02. Stelle
03. Marcia dei Re Magi
04. Stelle che danzano
05. Marcia dei Re Magi
06. Stelle che danzano
07. Una notte stellata
08. Stelle
09. Ninna nanna con animali
10. Canto di Natale
11. Dolori di Maria
12. Saluto il padre
13. Stelle di Betlemme
14. Ninna nanna con animali
15. Canto di Natale
16. Dolori di Maria
17. Natività
18. Andante amoroso
19. Chi sei?
20. Canzone dell'angelo
21. Ninna nanna con animali
22. Canto di NataleИсполнители:
Mario Ruffini - Notte Stellata A Betlemme
Giorgio Albertazzi (Voce recitante)
Susanna Rigacci (Soprano)
Coro di Voci Bianche, Guido Monaco
Coro Sociale di Grassina
Orchestra Benedetto Marcello
Mario Ruffini

Лог создания рипа

Exact Audio Copy V1.0 beta 3 from 29. August 2011
EAC extraction logfile from 29. November 2013, 13:42
Ruffini / Notte Stellata A Betlemme
Used drive : HL-DT-STDVD-RAM GSA-H55N Adapter: 0 ID: 0
Read mode : Secure
Utilize accurate stream : Yes
Defeat audio cache : Yes
Make use of C2 pointers : No
Read offset correction : 102
Overread into Lead-In and Lead-Out : No
Fill up missing offset samples with silence : Yes
Delete leading and trailing silent blocks : No
Null samples used in CRC calculations : Yes
Used interface : Native Win32 interface for Win NT & 2000
Used output format : User Defined Encoder
Selected bitrate : 768 kBit/s
Quality : High
Add ID3 tag : No
Command line compressor : C:\Program Files\Exact Audio Copy\FLAC\FLAC.EXE
Additional command line options : -6 -V -T "ARTIST=%artist%" -T "TITLE=%title%" -T "ALBUM=%albumtitle%" -T "DATE=%year%" -T "TRACKNUMBER=%tracknr%" -T "GENRE=%genre%" -T "COMMENT=%comment%" -T "BAND=%albuminterpret%" -T "ALBUMARTIST=%albuminterpret%" -T "COMPOSER=%composer%" %haslyrics%--tag-from-file=LYRICS="%lyricsfile%"%haslyrics% -T "DISCNUMBER=%cdnumber%" -T "TOTALDISCS=%totalcds%" -T "TOTALTRACKS=%numtracks%" %hascover%--picture="%coverfile%"%hascover% %source% -o %dest%
TOC of the extracted CD
Track | Start | Length | Start sector | End sector
---------------------------------------------------------
1 | 0:00.00 | 6:02.17 | 0 | 27166
2 | 6:02.17 | 2:09.45 | 27167 | 36886
3 | 8:11.62 | 2:28.01 | 36887 | 47987
4 | 10:39.63 | 2:09.48 | 47988 | 57710
5 | 12:49.36 | 2:28.09 | 57711 | 68819
6 | 15:17.45 | 1:09.13 | 68820 | 74007
7 | 16:26.58 | 2:34.30 | 74008 | 85587
8 | 19:01.13 | 2:18.53 | 85588 | 95990
9 | 21:19.66 | 1:08.61 | 95991 | 101151
10 | 22:28.52 | 3:40.45 | 101152 | 117696
11 | 26:09.22 | 0:58.00 | 117697 | 122046
12 | 27:07.22 | 5:06.57 | 122047 | 145053
13 | 32:14.04 | 2:17.65 | 145054 | 155393
14 | 34:31.69 | 1:08.73 | 155394 | 160566
15 | 35:40.67 | 3:40.39 | 160567 | 177105
16 | 39:21.31 | 0:59.23 | 177106 | 181553
17 | 40:20.54 | 1:15.35 | 181554 | 187213
18 | 41:36.14 | 1:04.71 | 187214 | 192084
19 | 42:41.10 | 1:54.19 | 192085 | 200653
20 | 44:35.29 | 2:33.45 | 200654 | 212173
21 | 47:08.74 | 1:09.30 | 212174 | 217378
22 | 48:18.29 | 5:26.45 | 217379 | 241873
Range status and errors
Selected range
Filename L:\04 NAAR RUTRACKER\Ruffini - Notte Stellata A Betlemme.wav
Peak level 97.0 %
Extraction speed 2.5 X
Range quality 99.9 %
Test CRC 1A83EABA
Copy CRC 1A83EABA
Copy OK
No errors occurred
AccurateRip summary
Track 1 accurately ripped (confidence 1) [C8202ABD] (AR v1)
Track 2 accurately ripped (confidence 1) [83735434] (AR v1)
Track 3 accurately ripped (confidence 1) [A25D5401] (AR v1)
Track 4 accurately ripped (confidence 1) [E415D4AA] (AR v1)
Track 5 accurately ripped (confidence 1) [9216653D] (AR v1)
Track 6 accurately ripped (confidence 1) [CD700093] (AR v1)
Track 7 accurately ripped (confidence 1) [C6CAE0DF] (AR v1)
Track 8 accurately ripped (confidence 1) [88B32A4F] (AR v1)
Track 9 accurately ripped (confidence 1) [15DDADAA] (AR v1)
Track 10 accurately ripped (confidence 1) [CD01619D] (AR v1)
Track 11 accurately ripped (confidence 1) [CC26530E] (AR v1)
Track 12 accurately ripped (confidence 1) [E76CBB78] (AR v1)
Track 13 accurately ripped (confidence 1) [3FB9239B] (AR v1)
Track 14 accurately ripped (confidence 1) [E1D39E0E] (AR v1)
Track 15 accurately ripped (confidence 1) [69CFB05B] (AR v1)
Track 16 accurately ripped (confidence 1) [BA1D30C8] (AR v1)
Track 17 accurately ripped (confidence 1) [3A232824] (AR v1)
Track 18 accurately ripped (confidence 1) [11B043C7] (AR v1)
Track 19 accurately ripped (confidence 1) [93051E80] (AR v1)
Track 20 accurately ripped (confidence 1) [5EC4CB3D] (AR v1)
Track 21 accurately ripped (confidence 1) [69E14921] (AR v1)
Track 22 accurately ripped (confidence 1) [DE8986F4] (AR v1)
All tracks accurately ripped
End of status report
---- CUETools DB Plugin V2.1.3
[CTDB TOCID: nqVqm_ioKniuaryrwE09DMAxWF0-] disk not present in database, Submit result: nqVqm_ioKniuaryrwE09DMAxWF0- has been uploaded
==== Log checksum 1539862292D4D4FF57D02E38858CDCE55525ED602DAE8AB228F4F8673AFCE59C ====

Содержание индексной карты (.CUE)

REM GENRE Sacred
REM DATE 198
REM DISCID 390C9816
REM COMMENT "ExactAudioCopy v1.0b3"
PERFORMER "Ruffini"
TITLE "Notte Stellata A Betlemme"
FILE "Ruffini - Notte Stellata A Betlemme.flac" WAVE
TRACK 01 AUDIO
TITLE "Una notte stellata"
PERFORMER "Ruffini"
INDEX 01 00:00:00
TRACK 02 AUDIO
TITLE "Stelle"
PERFORMER "Ruffini"
INDEX 00 06:00:17
INDEX 01 06:02:17
TRACK 03 AUDIO
TITLE "Marcia dei Re Magi"
PERFORMER "Ruffini"
INDEX 00 08:09:62
INDEX 01 08:11:62
TRACK 04 AUDIO
TITLE "Stelle che danzano"
PERFORMER "Ruffini"
INDEX 00 10:37:63
INDEX 01 10:39:63
TRACK 05 AUDIO
TITLE "Marcia dei Re Magi"
PERFORMER "Ruffini"
INDEX 00 12:46:74
INDEX 01 12:49:36
TRACK 06 AUDIO
TITLE "Stelle che danzano"
PERFORMER "Ruffini"
INDEX 00 15:14:61
INDEX 01 15:17:45
TRACK 07 AUDIO
TITLE "Una notte stellata"
PERFORMER "Ruffini"
INDEX 00 16:24:36
INDEX 01 16:26:58
TRACK 08 AUDIO
TITLE "Stelle"
PERFORMER "Ruffini"
INDEX 00 18:58:55
INDEX 01 19:01:13
TRACK 09 AUDIO
TITLE "Ninna nanna con animali"
PERFORMER "Ruffini"
INDEX 00 21:17:63
INDEX 01 21:19:66
TRACK 10 AUDIO
TITLE "Canto di Natale"
PERFORMER "Ruffini"
INDEX 00 22:25:68
INDEX 01 22:28:52
TRACK 11 AUDIO
TITLE "Dolori di Maria"
PERFORMER "Ruffini"
INDEX 00 26:06:67
INDEX 01 26:09:22
TRACK 12 AUDIO
TITLE "Saluto il padre"
PERFORMER "Ruffini"
INDEX 00 27:04:46
INDEX 01 27:07:22
TRACK 13 AUDIO
TITLE "Stelle di Betlemme"
PERFORMER "Ruffini"
INDEX 00 32:11:58
INDEX 01 32:14:04
TRACK 14 AUDIO
TITLE "Ninna nanna con animali"
PERFORMER "Ruffini"
INDEX 00 34:29:14
INDEX 01 34:31:69
TRACK 15 AUDIO
TITLE "Canto di Natale"
PERFORMER "Ruffini"
INDEX 00 35:38:17
INDEX 01 35:40:67
TRACK 16 AUDIO
TITLE "Dolori di Maria"
PERFORMER "Ruffini"
INDEX 00 39:18:73
INDEX 01 39:21:31
TRACK 17 AUDIO
TITLE "Natività"
PERFORMER "Ruffini"
INDEX 00 40:18:36
INDEX 01 40:20:54
TRACK 18 AUDIO
TITLE "Andante amoroso"
PERFORMER "Ruffini"
INDEX 00 41:33:38
INDEX 01 41:36:14
TRACK 19 AUDIO
TITLE "Chi sei?"
PERFORMER "Ruffini"
INDEX 00 42:39:16
INDEX 01 42:41:10
TRACK 20 AUDIO
TITLE "Canzone dell'angelo"
PERFORMER "Ruffini"
INDEX 00 44:32:43
INDEX 01 44:35:29
TRACK 21 AUDIO
TITLE "Ninna nanna con animali"
PERFORMER "Ruffini"
INDEX 00 47:06:05
INDEX 01 47:08:74
TRACK 22 AUDIO
TITLE "Canto di Natale"
PERFORMER "Ruffini"
INDEX 00 48:15:74
INDEX 01 48:18:29



Показать сообщения:    

Текущее время: 05-Дек 05:26

Часовой пояс: UTC + 3


Вы не можете начинать темы
Вы не можете отвечать на сообщения
Вы не можете редактировать свои сообщения
Вы не можете удалять свои сообщения
Вы не можете голосовать в опросах
Вы не можете прикреплять файлы к сообщениям
Вы не можете скачивать файлы