(Renaissance) Dorothee Mields, Hille Perl & Lee Santana - Loves Alchymie (Ferrabosco Coperario Donne Corkine Wilson Jenkins Lawes Hume Dowland) - 2010, FLAC (image+.cue) lossless


 

[Цитировать]

Loves Alchymïe
Жанр: Renaissance
Страна-производитель диска: EU
Год издания диска: 2010
Издатель (лейбл): Deutsche Harmonia Mundi
Номер по каталогу: 88697704362
Дата записи: 2010
Аудиокодек: FLAC
Тип рипа: image+.cue
Битрейт аудио: lossless
Продолжительность: 01:19:01
Источник: скачано с avaxhome
Наличие сканов в содержимом раздачи: да
Треклист:
01 Ferrabosco: The Expiration 2:14
02 Anonymous: Goe and catch a falling star 1:57
03 Coperario: The Message 2:22
04 Donne: The Bait 2:17
05 Corkine: Come live with me and be my Love 2:10
06 Corkine: Breake of Day 2:38
07 Wilson: Love now noe fire hath left him 1:41
08 Jenkins: Divisions upon a ground in C 5:21
09 Lawes: No, no, fair heretic 2:22
10 Hume: I am melancholly 3:13
11 Hume: What greater Griefe 3:19
12 Hume: Death 4:31
13 Jenkins: A Hymn to God the Father 3:02
14 Wilson: Content 2:38
15 Anonymous: A Song of divine Love 2:22
16 Dowland: Queen Elizabeth's Galliard 1:05
17 Dowland: Loth to depart 4:39
18 Dowland: Time eldest sonne 4:02
19 Anonymous: Sweetest Love, I doe not goe 5:06
20 Ferrabosco: Fantasia 3:50
21 Anonymous: The Expiration 8:14
Исполнители:
Dorothee Mields: Soprano
Hille Perl: Viola da Gamba
Lee Santana: Lute

Лог создания рипа

Exact Audio Copy V1.0 beta 3 from 29. August 2011
EAC extraction logfile from 29. April 2013, 21:52
Dorothee Mields, Hille Perl & Lee Santana / Loves Alchymïe
Used drive : PIONEER BD-RW BDR-206 Adapter: 0 ID: 2
Read mode : Secure
Utilize accurate stream : Yes
Defeat audio cache : Yes
Make use of C2 pointers : No
Read offset correction : 667
Overread into Lead-In and Lead-Out : No
Fill up missing offset samples with silence : Yes
Delete leading and trailing silent blocks : No
Null samples used in CRC calculations : Yes
Used interface : Native Win32 interface for Win NT & 2000
Used output format : User Defined Encoder
Selected bitrate : 1024 kBit/s
Quality : High
Add ID3 tag : Yes
Command line compressor : C:\Program Files\FLAC\flac.exe
Additional command line options : -5 -T "Artist=%artist%" -T "Title=%title%" -T "Album=%albumtitle%" -T "Date=%year%" -T "Tracknumber=%tracknr%" -T "Genre=%genre%" %source% -o %dest%
TOC of the extracted CD
Track | Start | Length | Start sector | End sector
---------------------------------------------------------
1 | 0:00.00 | 2:13.56 | 0 | 10030
2 | 2:13.56 | 1:57.25 | 10031 | 18830
3 | 4:11.06 | 2:21.43 | 18831 | 29448
4 | 6:32.49 | 2:17.07 | 29449 | 39730
5 | 8:49.56 | 2:10.04 | 39731 | 49484
6 | 10:59.60 | 2:37.38 | 49485 | 61297
7 | 13:37.23 | 1:41.06 | 61298 | 68878
8 | 15:18.29 | 5:21.19 | 68879 | 92972
9 | 20:39.48 | 2:21.71 | 92973 | 103618
10 | 23:01.44 | 3:12.70 | 103619 | 118088
11 | 26:14.39 | 3:18.66 | 118089 | 133004
12 | 29:33.30 | 4:30.68 | 133005 | 153322
13 | 34:04.23 | 3:01.71 | 153323 | 166968
14 | 37:06.19 | 2:37.63 | 166969 | 178806
15 | 39:44.07 | 2:22.00 | 178807 | 189456
16 | 42:06.07 | 1:04.71 | 189457 | 194327
17 | 43:11.03 | 4:38.74 | 194328 | 215251
18 | 47:50.02 | 4:02.16 | 215252 | 233417
19 | 51:52.18 | 5:05.53 | 233418 | 256345
20 | 56:57.71 | 3:49.51 | 256346 | 273571
21 | 60:47.47 | 8:13.48 | 273572 | 310594
Range status and errors
Selected range
Filename F:\=== VINYL RIPS ===\=== EAC===\X FRESH RIP\Dorothee Mields, Hille Perl & Lee Santana - Loves Alchymïe.wav
Peak level 98.7 %
Extraction speed 8.0 X
Range quality 100.0 %
Test CRC 97E85B45
Copy CRC 97E85B45
Copy OK
No errors occurred
AccurateRip summary
Track 1 accurately ripped (confidence 4) [AD5BEBFA] (AR v1)
Track 2 accurately ripped (confidence 4) [F74652F9] (AR v1)
Track 3 accurately ripped (confidence 4) [13E70C22] (AR v1)
Track 4 accurately ripped (confidence 3) [F442A83A] (AR v1)
Track 5 accurately ripped (confidence 3) [CB2752C8] (AR v1)
Track 6 accurately ripped (confidence 3) [64B516A1] (AR v1)
Track 7 accurately ripped (confidence 3) [C6CF6940] (AR v1)
Track 8 accurately ripped (confidence 3) [40BEB32F] (AR v1)
Track 9 accurately ripped (confidence 3) [06351D6C] (AR v1)
Track 10 accurately ripped (confidence 3) [B1FC6F4B] (AR v1)
Track 11 accurately ripped (confidence 3) [5E3A3EC1] (AR v1)
Track 12 accurately ripped (confidence 3) [E5831A49] (AR v1)
Track 13 accurately ripped (confidence 3) [4245683B] (AR v1)
Track 14 accurately ripped (confidence 3) [8D8219D1] (AR v1)
Track 15 accurately ripped (confidence 3) [6BD4FDC9] (AR v1)
Track 16 accurately ripped (confidence 3) [04C8D881] (AR v1)
Track 17 accurately ripped (confidence 3) [07D39F91] (AR v1)
Track 18 accurately ripped (confidence 3) [E0D9A446] (AR v1)
Track 19 accurately ripped (confidence 3) [2486D68C] (AR v1)
Track 20 accurately ripped (confidence 3) [FDBBF2F4] (AR v1)
Track 21 accurately ripped (confidence 3) [9077B909] (AR v1)
All tracks accurately ripped
End of status report
---- CUETools DB Plugin V2.1.3
[CTDB TOCID: SwJ.6oLHcfAwg1eugzajb9nQJp4-] found, Submit result: SwJ.6oLHcfAwg1eugzajb9nQJp4- has been confirmed
[77c63fa3] (1/1) Accurately ripped
==== Log checksum 1F6DCE12E59B1967B769A0396A958B1BCCF30279FA56D19D0E9C48F3F6DB2582 ====

Лог проверки качества

AUDIOCHECKER v2.0 beta (build 457) - by Dester - opdester@freemail.hu
~~~~~~~~~~~~~~~~~~~~~~~~~~~~~~~~~~
-=== DO NOT EDIT THIS FILE! ===-
Path: ...\Dorothee Mields, Hille Perl & Lee Santana - Loves Alchymie {2010}
1 -=- Dorothee Mields, Hille Perl & Lee Santana - Loves Alchymie.flac -=- CDDA (100%)
98998196



Показать сообщения:    

Текущее время: 10-Дек 19:36

Часовой пояс: UTC + 3


Вы не можете начинать темы
Вы не можете отвечать на сообщения
Вы не можете редактировать свои сообщения
Вы не можете удалять свои сообщения
Вы не можете голосовать в опросах
Вы не можете прикреплять файлы к сообщениям
Вы не можете скачивать файлы