(Baroque Oratorio) Handel - Saul / Alexander's Feast / The Choice of Hercules [Box set] (Allen, Morrell, Best, Harper, Watts, Bowman, Donath - Ledger) - 2002, FLAC (image+.cue) lossless


Статистика раздачи [Обновить пиров]
Размер:  1.39 GB   |    Зарегистрирован:  8 месяцев 18 дней   |    Скачан:  0 раз

Полного источника не было: Никогда

 
   
 
 
 

[Цитировать]

Handel - Saul / Alexander's Feast / The Choice of Hercules [Box set]
Жанр: Baroque Oratorio
Страна-производитель диска: EU
Год издания диска: 2002
Издатель (лейбл): Virgin Classics
Номер по каталогу: 5 62118 2
Дата записи: 1975-1981
Аудиокодек: FLAC
Тип рипа: image+.cue
Битрейт аудио: lossless
Продолжительность: 78'23+45'22+57'29+74'47+71'54
Источник: собственный рип
Наличие сканов в содержимом раздачи: да
Треклист/Исполнители:
Saul, oratorio, HWV 53

Треклист:CD1

1 Act 1. Sinfonia. Allegro - Larghetto - Allegro - Andante larghetto 12:53
2 Act 1. Chorus. How excellent thy name, oh Lord 3:17
3 Act 1. Aria. An infant rais'd by thy command 1:27
4 Act 1. Chorus. Along the monster atheist strode 1:13
5 Act 1. Chorus. The youth inspir'd by Thee, oh Lord 3:25
6 Act 1. Chorus. Hallelujah 2:04
7 Act 1. Recitativo. He comes, he comes! 0:05
8 Act 1. Aria. Oh god-like youth! 3:22
9 Act 1. Recitativo. Behold, oh king 0:58
10 Act 1. Aria. Oh king, your favours with delight 6:24
11 Act 1. Aria. Recitativo. Oh early piety 0:30
12 Act 1. Aria. What abject thoughts a prince can have! 2:28
13 Act 1. Recitativo. Yet think, on whom this honour you bestow 0:18
14 Act 1. Aria. Birth and fortune I despise! 5:10
15 Act 1. Recitativo. Thou, Merab, first in birth 0:24
16 Act 1. Aria. My soul rejects the thought with scorn 1:33
17 Act 1. Aria. See, see with what a scornful air 1:11
18 Act 1. Ah! Lovely youth 1:00
19 Act 1. Sinfonia. Andante - Allegro 1:15
20 Act 1. Recitativo. Already see the daughters of the land 0:22
21 Act 1. Chorus. Welcome, welcome, mighty king! 1:42
22 Act 1. Accompagnato. What do I hear? 0:23
23 Act 1. Chorus. David his ten thousands slew 0:38
24 Act 1. Accompagnato. To him ten thousands 0:14
25 Act 1. Aria. With rage I shall burst 1:23
26 Act 1. Recitativo. Imprudent women! 0:56
27 Act 1. Aria. Fell rage and black despair possess'd 3:24
28 Act 1. Recitativo. Rack'd with infernal pains 0:20
29 Act 1. Aria. O Lord, whose mercies numberless 4:01
30 Act 1. Sinfonia (harp solo) 1:48
31 Act 1. Recitativo. 'Tis all in vain 0:23
32 Act 1. Aria. A serpent, in my bosom warm'd 2:09
33 Act 1. Recitativo. Has he escap'd my rage? 0:25
34 Act 1. Aria. Capricious man, in humour lost 4:20
35 Act 1. Accompagnato. Oh filial piety! Oh sacred friendship! 1:50
36 Act 1. Aria. No, no cruel father, no! 1:48
37 Act 1. Chorus. Preserve him for the glory of thy name 3:02

CD2

1 Act 2. Chorus. Envy! eldest born of hell! 2:59
2 Act 2. Recitativo. Ah! dearest friend 0:36
3 Act 2. Aria. But sooner Jordan's stream 2:26
4 Act 2. Recitativo. Oh strange vicissitude! 0:48
5 Act 2. Aria. Such haughty beauties rather move 5:17
6 Act 2. Recitativo. My father comes 0:14
7 Act 2. Recitativo. Hast thou obey'd my orders 0:38
8 Act 2. Aria. Sin not, oh king, against the youth 2:01
9 Act 2. Aria. As great Jehovah lives 1:49
10 Act 2. Aria. From cities storm'd 2:19
11 Act 2. Recitativo. Appear, my friend 0:36
12 Act 2. Aria. Your words, oh king 1:13
13 Act 2. Recitativo. Yes, he shall wed my daughter! 0:29
14 Act 2. Recitativo. A father's will has authoriz'd my love 0:35
15 Act 2. Duet. Oh fairest of ten thousand fair 3:17
16 Act 2. Chorus. Is there a man 1:50
17 Act 2. Sinfonia. Largo - Allegro 5:21
18 Act 2. Recitativo. Thy father is as cruel 0:35
19 Act 2. Duet. At persecution I can laugh 1:30
20 Act 2. Recitativo. Whom dost thou seek? 0:41
21 Act 2. Aria. No, no, let the guilty tremble 2:04
22 Act 2. Sinfonia. Allegro 1:23
23 Act 2. Accompagnato. The time at length is come 0:39
24 Act 2. Recitativo. Where is the son of Jesse? 1:13 4:35

CD3

1 Act 3. Accompagnato. Wretch that I am! 2:33
2 Act 3. Recitativo. 'Tis said, here lives a woman 0:55
3 Act 3. Recitativo. With me what would'st thou? 0:49
4 Act 3. Aria. Infernal spirits 1:54
5 Act 3. Accompagnato. Why hast thou forc'd me 3:44
6 Act 3. Sinfonia. Allegro 0:46
7 Act 3. Recitativo. Whence comst thou? 1:06
8 Act 3. Aria. Impious wretch 1:56
9 Act 3. Sinfonia. Grave (Dead March) 4:08
10 Act 3. Chorus. Mourn, Israel 3:32
11 Act 3. Aria. Oh let us not in Gath be heard 2:48
12 Act 3. Aria. From this unhappy day 2:51
13 Act 3. Aria. Brave Jonathan 0:30
14 Act 3. Chorus. Eagles were not so swift as they 0:25
15 Act 3. Aria. In sweetest harmony they liv'd 4:28
16 Act 3. Solo & chorus. Oh fatal day! 4:04
17 Act 3. Recitativo. Ye men of Judah, weep no more! 0:33
18 Act 3. Chorus. Gird on they sword 6:32

Исполнители:

George Frederick Handel - Saul, oratorio, HWV 53
Thomas Allen (Baritone)
Robert Tear (Tenor)
Paul Esswood (Countertenor)
Margaret Marshall (Soprano)
Sally Burgess (Soprano)
Martin Hill (Tenor)
Charles Daniels (Tenor)
Matthew Best (Bass)
Gareth Morrell (Bass)
Christoffer Gillett (Tenor)
Choir of King's College, Cambridge
English Chamber Orchester
Philip Ledger
Alexander's Feast, ode for St. Cecilia's Day, HWV 75

Треклист:CD4

1 Part 1. Overture 6:31
2 Part 1. Recitativo. 'Twas at the royal feast 1:04
3 Part 1. Aria & chorus. Happy, happy, happy pair! 4:43
4 Part 1. Recitativo. Timotheus, plac'd on high 0:30
5 Part 1. Accompagnato. The song began from Jove 1:02
6 Part 1. Chorus. The list'ning crowd 2:02
7 Part 1. Aria. With ravish'd ears 3:50
8 Part 1. Recitativo. The praise of Bacchus 0:39
9 Part 1. Aria & chorus. Bacchus, ever fair and young 5:03
10 Part 1. Recitativo. Sooth'd with the sound 0:45
11 Part 1. Accompagnato. He chose a mournful muse 1:27
12 Part 1. Aria. He sung Darius, great and good 3:06
13 Part 1. Accompagnato. With downcast looks 1:14
14 Part 1. Chorus. Behold Darius great and good 2:38
15 Part 1. Recitativo. The mighty master, smil'd to see 0:32
16 Part 1. Arioso. Softly sweet in Lydian measures 3:08
17 Part 1. Aria. War, he sung, is toil and trouble 4:40
18 Part 1. Chorus. The many rend the skies 4:45
19 Part 1. Aria. The prince, unable to conceal his pain 6:57
20 Part 1. Chorus [da capo]. The many rend the skies 4:49
21 Part 2. Accompagnato & chorus. Now strike the golden lyre again 8:37
22 Part 2. Aria. Revenge, revenge, Timotheus cries 2:03
23 Part 2. Accompagnato. Give this vengeance due 1:31
24 Part 2. Aria. The princes applaud 2:58

CD5

1 Part 2. Aria & chorus. Thais led the way 5:20
2 Part 2. Accompagnato & chorus. Thus, long ago 5:04
3 Part 2. Recitativo. Let old Timotheus yield the prize 0:30
4 Part 2. Soli & chorus. Let old Timotheus yield the prize 3:54
5 Part 2. Recitativo. Your voices tune 0:38
6 Part 2. Duet. Let's imitate her notes above 2:48
7 Part 2. Chorus. Your voices tune and raise 3:04

Исполнители:

George Frederick Handel - Alexander's Feast, ode for St. Cecilia's Day, HWV 75
Thomas Allen (Baritone)
Robert Tear (Tenor)
Helen Donath (Soprano)
Sally Burgess (Soprano)
Choir of King's College, Cambridge
English Chamber Orchester
Philip Ledger
The Choice of Hercules, oratorio, HWV 69

Треклист

CD5
8 Sinfonia 1:08
9 Recitativo. See, Hercules! 1:48
10 Aria. Come, blooming boy 1:57
11 Aria. There the brisk sparkling nectar drain 2:28
12 Aria & chorus. While for thy arms 2:30
13 Recitativo. Away, mistaken wretch! 0:28
14 Aria. This manly youth's exalted mind 6:15
15 Recitativo. Rise, youth! exalt thyself and me 0:18
16 Aria. Go, assert thy heav'nly race 2:43
17 Recitativo. In peace, in war 0:20
18 Chorus. So shalt thou gain immortal praise 2:25
19 Recitativo. Hear'st thou, what dangers 0:37
20 Aria & chorus. Turn thee, youth, to joy and love 2:34
21 Recitativo. Short is my way - Oh cease, enchanting siren! 0:38
22 Aria. Yet can I hear that dulcet lay 3:41
23 Aria. Enjoy the sweet Elysian grove 2:22
24 Recitativo. Oh! whither, Reason, dost thou fly? 0:15
25 Trio. Where shall I go? 2:22
26 Recitativo. Mount, mount the steep ascent! 0:42
27 Aria. Mount, mount the steep ascent! 1:36
28 Chorus. Arise, arise! 2:18
29 Recitativo. The sounds breathe fire celestial 0:17
30 Aria. Lead, Goddess, lead the way! 5:15
31 Chorus. Virtue will place thee 5:29

Исполнители:

George Frederick Handel - The Choice of Hercules, oratorio, HWV 69
Heather Harper (Soprano)
Helen Watts (Mezzo-Soprano)
James Bowman (Countertenor)
Robert Tear (Tenor)
Choir of King's College, Cambridge
Academy of St Martin-in-the-Fields
Philip Ledger

Лог создания рипа

CD1

Exact Audio Copy V1.0 beta 3 from 29. August 2011
EAC extraction logfile from 1. December 2013, 12:29
Handel / Saul, Ledger 1981 CD1
Used drive : HL-DT-STDVD-RAM GSA-H55N Adapter: 0 ID: 0
Read mode : Secure
Utilize accurate stream : Yes
Defeat audio cache : Yes
Make use of C2 pointers : No
Read offset correction : 102
Overread into Lead-In and Lead-Out : No
Fill up missing offset samples with silence : Yes
Delete leading and trailing silent blocks : No
Null samples used in CRC calculations : Yes
Used interface : Native Win32 interface for Win NT & 2000
Used output format : User Defined Encoder
Selected bitrate : 768 kBit/s
Quality : High
Add ID3 tag : No
Command line compressor : C:\Program Files\Exact Audio Copy\FLAC\FLAC.EXE
Additional command line options : -6 -V -T "ARTIST=%artist%" -T "TITLE=%title%" -T "ALBUM=%albumtitle%" -T "DATE=%year%" -T "TRACKNUMBER=%tracknr%" -T "GENRE=%genre%" -T "COMMENT=%comment%" -T "BAND=%albuminterpret%" -T "ALBUMARTIST=%albuminterpret%" -T "COMPOSER=%composer%" %haslyrics%--tag-from-file=LYRICS="%lyricsfile%"%haslyrics% -T "DISCNUMBER=%cdnumber%" -T "TOTALDISCS=%totalcds%" -T "TOTALTRACKS=%numtracks%" %hascover%--picture="%coverfile%"%hascover% %source% -o %dest%
TOC of the extracted CD
Track | Start | Length | Start sector | End sector
---------------------------------------------------------
1 | 0:00.33 | 12:53.06 | 33 | 58013
2 | 12:53.39 | 3:17.42 | 58014 | 72830
3 | 16:11.06 | 1:27.06 | 72831 | 79361
4 | 17:38.12 | 1:13.60 | 79362 | 84896
5 | 18:51.72 | 3:25.00 | 84897 | 100271
6 | 22:16.72 | 2:04.27 | 100272 | 109598
7 | 24:21.24 | 0:05.31 | 109599 | 110004
8 | 24:26.55 | 3:22.30 | 110005 | 125184
9 | 27:49.10 | 0:58.05 | 125185 | 129539
10 | 28:47.15 | 6:24.31 | 129540 | 158370
11 | 35:11.46 | 0:30.14 | 158371 | 160634
12 | 35:41.60 | 2:28.60 | 160635 | 171794
13 | 38:10.45 | 0:18.61 | 171795 | 173205
14 | 38:29.31 | 5:10.53 | 173206 | 196508
15 | 43:40.09 | 0:24.39 | 196509 | 198347
16 | 44:04.48 | 1:33.60 | 198348 | 205382
17 | 45:38.33 | 1:11.59 | 205383 | 210766
18 | 46:50.17 | 1:00.31 | 210767 | 215297
19 | 47:50.48 | 1:15.04 | 215298 | 220926
20 | 49:05.52 | 0:22.56 | 220927 | 222632
21 | 49:28.33 | 1:42.57 | 222633 | 230339
22 | 51:11.15 | 0:23.22 | 230340 | 232086
23 | 51:34.37 | 0:38.16 | 232087 | 234952
24 | 52:12.53 | 0:14.37 | 234953 | 236039
25 | 52:27.15 | 1:23.48 | 236040 | 242312
26 | 53:50.63 | 0:56.12 | 242313 | 246524
27 | 54:47.00 | 3:24.45 | 246525 | 261869
28 | 58:11.45 | 0:20.34 | 261870 | 263403
29 | 58:32.04 | 4:01.15 | 263404 | 281493
30 | 62:33.19 | 1:48.12 | 281494 | 289605
31 | 64:21.31 | 0:23.47 | 289606 | 291377
32 | 64:45.03 | 2:09.04 | 291378 | 301056
33 | 66:54.07 | 0:25.20 | 301057 | 302951
34 | 67:19.27 | 4:20.42 | 302952 | 322493
35 | 71:39.69 | 1:50.45 | 322494 | 330788
36 | 73:30.39 | 1:48.01 | 330789 | 338889
37 | 75:18.40 | 3:02.74 | 338890 | 352613
Range status and errors
Selected range
Filename L:\04 NAAR RUTRACKER\Handel - Saul, Ledger 1981 CD1.wav
Peak level 98.4 %
Extraction speed 3.2 X
Range quality 100.0 %
Test CRC 38BCE0C8
Copy CRC 38BCE0C8
Copy OK
No errors occurred
AccurateRip summary
Track 1 accurately ripped (confidence 1) [37648BA0] (AR v2)
Track 2 accurately ripped (confidence 1) [E5219229] (AR v2)
Track 3 accurately ripped (confidence 1) [2C924303] (AR v2)
Track 4 accurately ripped (confidence 1) [1E2C4AC1] (AR v2)
Track 5 accurately ripped (confidence 1) [CAB433FE] (AR v2)
Track 6 accurately ripped (confidence 1) [D8E19220] (AR v2)
Track 7 not present in database
Track 8 accurately ripped (confidence 1) [1C671DB8] (AR v2)
Track 9 accurately ripped (confidence 1) [B092EB0C] (AR v2)
Track 10 accurately ripped (confidence 1) [95A24D82] (AR v2)
Track 11 accurately ripped (confidence 1) [EECBAAD1] (AR v2)
Track 12 accurately ripped (confidence 1) [677074C7] (AR v2)
Track 13 accurately ripped (confidence 1) [8BCF56A1] (AR v2)
Track 14 accurately ripped (confidence 1) [A233861C] (AR v2)
Track 15 accurately ripped (confidence 1) [AEC4314C] (AR v2)
Track 16 accurately ripped (confidence 1) [34B65C5F] (AR v2)
Track 17 accurately ripped (confidence 1) [DF4A8DCD] (AR v2)
Track 18 accurately ripped (confidence 1) [1EC88E45] (AR v2)
Track 19 accurately ripped (confidence 1) [FE627B22] (AR v2)
Track 20 accurately ripped (confidence 1) [39B4C2BA] (AR v2)
Track 21 accurately ripped (confidence 1) [D0B9285F] (AR v2)
Track 22 accurately ripped (confidence 1) [D66FBBFA] (AR v2)
Track 23 accurately ripped (confidence 1) [0828A554] (AR v2)
Track 24 accurately ripped (confidence 1) [966CDB41] (AR v2)
Track 25 accurately ripped (confidence 1) [9DBA635A] (AR v2)
Track 26 accurately ripped (confidence 1) [020C74C1] (AR v2)
Track 27 accurately ripped (confidence 1) [6AE552A8] (AR v2)
Track 28 accurately ripped (confidence 1) [2339C4A5] (AR v2)
Track 29 accurately ripped (confidence 1) [C07D533D] (AR v2)
Track 30 accurately ripped (confidence 1) [62895145] (AR v2)
Track 31 accurately ripped (confidence 1) [A07EF3CC] (AR v2)
Track 32 accurately ripped (confidence 1) [9DD20E6D] (AR v2)
Track 33 accurately ripped (confidence 1) [9394ABA7] (AR v2)
Track 34 accurately ripped (confidence 1) [BBDCB7E0] (AR v2)
Track 35 accurately ripped (confidence 1) [FE2C0ABE] (AR v2)
Track 36 accurately ripped (confidence 1) [18701383] (AR v2)
Track 37 accurately ripped (confidence 1) [0AC326FD] (AR v2)
36 track(s) accuraat gelezen
1 track(s) niet aanwezig in de AccurateRip database
Some tracks could not be verified as accurate
End of status report
---- CUETools DB Plugin V2.1.3
[CTDB TOCID: idMiaPLdBhOSl6lm1YnOU8JNnU0-] disk not present in database, Submit result: discs with pregaps not supported in this protocol version
==== Log checksum 0BDA12D8104B6BDFE6B6D4AE9D41014E3E431AC83F0D18E78DC94F1B6CD030DB ====

CD2

Exact Audio Copy V1.0 beta 3 from 29. August 2011
EAC extraction logfile from 1. December 2013, 12:00
Handel / Saul, Ledger 1981 CD2
Used drive : TSSTcorpCDDVDW SE-208AB Adapter: 1 ID: 0
Read mode : Secure
Utilize accurate stream : Yes
Defeat audio cache : Yes
Make use of C2 pointers : No
Read offset correction : 6
Overread into Lead-In and Lead-Out : No
Fill up missing offset samples with silence : Yes
Delete leading and trailing silent blocks : No
Null samples used in CRC calculations : Yes
Used interface : Native Win32 interface for Win NT & 2000
Used output format : User Defined Encoder
Selected bitrate : 768 kBit/s
Quality : High
Add ID3 tag : No
Command line compressor : C:\Program Files\Exact Audio Copy\FLAC\FLAC.EXE
Additional command line options : -6 -V -T "ARTIST=%artist%" -T "TITLE=%title%" -T "ALBUM=%albumtitle%" -T "DATE=%year%" -T "TRACKNUMBER=%tracknr%" -T "GENRE=%genre%" -T "COMMENT=%comment%" -T "BAND=%albuminterpret%" -T "ALBUMARTIST=%albuminterpret%" -T "COMPOSER=%composer%" %haslyrics%--tag-from-file=LYRICS="%lyricsfile%"%haslyrics% -T "DISCNUMBER=%cdnumber%" -T "TOTALDISCS=%totalcds%" -T "TOTALTRACKS=%numtracks%" %hascover%--picture="%coverfile%"%hascover% %source% -o %dest%
TOC of the extracted CD
Track | Start | Length | Start sector | End sector
---------------------------------------------------------
1 | 0:00.36 | 2:59.10 | 36 | 13470
2 | 2:59.46 | 0:36.15 | 13471 | 16185
3 | 3:35.61 | 2:26.31 | 16186 | 27166
4 | 6:02.17 | 0:48.38 | 27167 | 30804
5 | 6:50.55 | 5:17.00 | 30805 | 54579
6 | 12:07.55 | 0:14.72 | 54580 | 55701
7 | 12:22.52 | 0:38.45 | 55702 | 58596
8 | 13:01.22 | 2:01.42 | 58597 | 67713
9 | 15:02.64 | 1:49.69 | 67714 | 75957
10 | 16:52.58 | 2:19.20 | 75958 | 86402
11 | 19:12.03 | 0:36.29 | 86403 | 89131
12 | 19:48.32 | 1:13.42 | 89132 | 94648
13 | 21:01.74 | 0:29.69 | 94649 | 96892
14 | 21:31.68 | 0:35.40 | 96893 | 99557
15 | 22:07.33 | 3:17.29 | 99558 | 114361
16 | 25:24.62 | 1:50.43 | 114362 | 122654
17 | 27:15.30 | 5:21.10 | 122655 | 146739
18 | 32:36.40 | 0:35.59 | 146740 | 149423
19 | 33:12.24 | 1:30.40 | 149424 | 156213
20 | 34:42.64 | 0:41.06 | 156214 | 159294
21 | 35:23.70 | 2:04.16 | 159295 | 168610
22 | 37:28.11 | 1:23.73 | 168611 | 174908
23 | 38:52.09 | 0:39.07 | 174909 | 177840
24 | 39:31.16 | 1:13.65 | 177841 | 183380
25 | 40:45.06 | 4:35.22 | 183381 | 204027
Range status and errors
Selected range
Filename L:\04 NAAR RUTRACKER\Handel - Saul, Ledger 1981 CD2.wav
Peak level 93.7 %
Extraction speed 4.3 X
Range quality 100.0 %
Test CRC 321AAF13
Copy CRC 321AAF13
Copy OK
No errors occurred
AccurateRip summary
Track 1 accurately ripped (confidence 1) [9164BEC9] (AR v2)
Track 2 accurately ripped (confidence 1) [42B5F091] (AR v2)
Track 3 accurately ripped (confidence 1) [820B3EF3] (AR v2)
Track 4 accurately ripped (confidence 1) [436840E8] (AR v2)
Track 5 accurately ripped (confidence 1) [681280BB] (AR v2)
Track 6 accurately ripped (confidence 1) [8C71E711] (AR v2)
Track 7 accurately ripped (confidence 1) [54C116D7] (AR v2)
Track 8 accurately ripped (confidence 1) [BBB057BA] (AR v2)
Track 9 accurately ripped (confidence 1) [DCDBDCC9] (AR v2)
Track 10 accurately ripped (confidence 1) [B720826A] (AR v2)
Track 11 accurately ripped (confidence 1) [117F09AF] (AR v2)
Track 12 accurately ripped (confidence 1) [9A980CBC] (AR v2)
Track 13 accurately ripped (confidence 1) [84CCDCCD] (AR v2)
Track 14 accurately ripped (confidence 1) [43F002F6] (AR v2)
Track 15 accurately ripped (confidence 1) [84758558] (AR v2)
Track 16 accurately ripped (confidence 1) [228E7429] (AR v2)
Track 17 accurately ripped (confidence 1) [1C11F5C5] (AR v2)
Track 18 accurately ripped (confidence 1) [93ADDD58] (AR v2)
Track 19 accurately ripped (confidence 1) [F0AB8BF7] (AR v2)
Track 20 accurately ripped (confidence 1) [EA4F5476] (AR v2)
Track 21 accurately ripped (confidence 1) [456FD970] (AR v2)
Track 22 accurately ripped (confidence 1) [87D89CDE] (AR v2)
Track 23 accurately ripped (confidence 1) [C332A49C] (AR v2)
Track 24 accurately ripped (confidence 1) [CF06B824] (AR v2)
Track 25 accurately ripped (confidence 1) [E433BCAF] (AR v2)
All tracks accurately ripped
End of status report
---- CUETools DB Plugin V2.1.3
[CTDB TOCID: KDNgob7qAL3LRlhQNA.KaRZhiyA-] disk not present in database, Submit result: discs with pregaps not supported in this protocol version
==== Log checksum 1F1FE73460D165E58C24C7DE78380F2A7CF3447208F06F0590D87165D8DA90F9 ====

CD3

Exact Audio Copy V1.0 beta 3 from 29. August 2011
EAC extraction logfile from 1. December 2013, 12:23
Handel / Saul, Ledger 1981 CD3
Used drive : TSSTcorpCDDVDW SE-208AB Adapter: 1 ID: 0
Read mode : Secure
Utilize accurate stream : Yes
Defeat audio cache : Yes
Make use of C2 pointers : No
Read offset correction : 6
Overread into Lead-In and Lead-Out : No
Fill up missing offset samples with silence : Yes
Delete leading and trailing silent blocks : No
Null samples used in CRC calculations : Yes
Used interface : Native Win32 interface for Win NT & 2000
Used output format : User Defined Encoder
Selected bitrate : 768 kBit/s
Quality : High
Add ID3 tag : No
Command line compressor : C:\Program Files\Exact Audio Copy\FLAC\FLAC.EXE
Additional command line options : -6 -V -T "ARTIST=%artist%" -T "TITLE=%title%" -T "ALBUM=%albumtitle%" -T "DATE=%year%" -T "TRACKNUMBER=%tracknr%" -T "GENRE=%genre%" -T "COMMENT=%comment%" -T "BAND=%albuminterpret%" -T "ALBUMARTIST=%albuminterpret%" -T "COMPOSER=%composer%" %haslyrics%--tag-from-file=LYRICS="%lyricsfile%"%haslyrics% -T "DISCNUMBER=%cdnumber%" -T "TOTALDISCS=%totalcds%" -T "TOTALTRACKS=%numtracks%" %hascover%--picture="%coverfile%"%hascover% %source% -o %dest%
TOC of the extracted CD
Track | Start | Length | Start sector | End sector
---------------------------------------------------------
1 | 0:00.00 | 2:33.06 | 0 | 11480
2 | 2:33.06 | 0:55.72 | 11481 | 15677
3 | 3:29.03 | 0:49.68 | 15678 | 19420
4 | 4:18.71 | 1:54.17 | 19421 | 27987
5 | 6:13.13 | 3:44.25 | 27988 | 44812
6 | 9:57.38 | 0:46.16 | 44813 | 48278
7 | 10:43.54 | 1:06.34 | 48279 | 53262
8 | 11:50.13 | 1:56.22 | 53263 | 61984
9 | 13:46.35 | 4:08.02 | 61985 | 80586
10 | 17:54.37 | 3:32.57 | 80587 | 96543
11 | 21:27.19 | 2:48.45 | 96544 | 109188
12 | 24:15.64 | 2:51.22 | 109189 | 122035
13 | 27:07.11 | 0:30.24 | 122036 | 124309
14 | 27:37.35 | 0:25.73 | 124310 | 126257
15 | 28:03.33 | 4:28.03 | 126258 | 146360
16 | 32:31.36 | 4:04.48 | 146361 | 164708
17 | 36:36.09 | 0:33.57 | 164709 | 167240
18 | 37:09.66 | 6:32.09 | 167241 | 196649
Range status and errors
Selected range
Filename L:\04 NAAR RUTRACKER\Handel - Saul, Ledger 1981 CD3.wav
Peak level 100.0 %
Extraction speed 4.3 X
Range quality 100.0 %
Test CRC D55872AF
Copy CRC D55872AF
Copy OK
No errors occurred
AccurateRip summary
Track 1 accurately ripped (confidence 1) [4B0E886A] (AR v2)
Track 2 accurately ripped (confidence 1) [517F3079] (AR v2)
Track 3 accurately ripped (confidence 1) [E545F66D] (AR v2)
Track 4 accurately ripped (confidence 1) [83927EE9] (AR v2)
Track 5 accurately ripped (confidence 1) [520E9534] (AR v2)
Track 6 accurately ripped (confidence 1) [7889632D] (AR v2)
Track 7 accurately ripped (confidence 1) [F81FAF73] (AR v2)
Track 8 accurately ripped (confidence 1) [E7EB5310] (AR v2)
Track 9 accurately ripped (confidence 1) [D322219B] (AR v2)
Track 10 accurately ripped (confidence 1) [97F7D186] (AR v2)
Track 11 accurately ripped (confidence 1) [E8BDABCC] (AR v2)
Track 12 accurately ripped (confidence 1) [DB8FEA04] (AR v2)
Track 13 accurately ripped (confidence 1) [20C2933C] (AR v2)
Track 14 accurately ripped (confidence 1) [A3BA065B] (AR v2)
Track 15 accurately ripped (confidence 1) [E4CCE6EE] (AR v2)
Track 16 accurately ripped (confidence 1) [434277E5] (AR v2)
Track 17 accurately ripped (confidence 1) [84444F91] (AR v2)
Track 18 accurately ripped (confidence 1) [E427B34E] (AR v2)
All tracks accurately ripped
End of status report
---- CUETools DB Plugin V2.1.3
[CTDB TOCID: udl8teHw8.1F5IDDv776Rh34fnE-] found, Submit result: udl8teHw8.1F5IDDv776Rh34fnE- has been confirmed
[36b7e45f] (1/1) Accurately ripped
==== Log checksum 878CBBF1E165A42637EE673B12D7374C5DAAE8492A696296F89795FD261E02B7 ====

CD4

Exact Audio Copy V1.0 beta 3 from 29. August 2011
EAC extraction logfile from 1. December 2013, 14:35
Handel / Alexander's Feast, Ledger 1979 CD4
Used drive : HL-DT-STDVD-RAM GSA-H55N Adapter: 0 ID: 0
Read mode : Secure
Utilize accurate stream : Yes
Defeat audio cache : Yes
Make use of C2 pointers : No
Read offset correction : 102
Overread into Lead-In and Lead-Out : No
Fill up missing offset samples with silence : Yes
Delete leading and trailing silent blocks : No
Null samples used in CRC calculations : Yes
Used interface : Native Win32 interface for Win NT & 2000
Used output format : User Defined Encoder
Selected bitrate : 768 kBit/s
Quality : High
Add ID3 tag : No
Command line compressor : C:\Program Files\Exact Audio Copy\FLAC\FLAC.EXE
Additional command line options : -6 -V -T "ARTIST=%artist%" -T "TITLE=%title%" -T "ALBUM=%albumtitle%" -T "DATE=%year%" -T "TRACKNUMBER=%tracknr%" -T "GENRE=%genre%" -T "COMMENT=%comment%" -T "BAND=%albuminterpret%" -T "ALBUMARTIST=%albuminterpret%" -T "COMPOSER=%composer%" %haslyrics%--tag-from-file=LYRICS="%lyricsfile%"%haslyrics% -T "DISCNUMBER=%cdnumber%" -T "TOTALDISCS=%totalcds%" -T "TOTALTRACKS=%numtracks%" %hascover%--picture="%coverfile%"%hascover% %source% -o %dest%
TOC of the extracted CD
Track | Start | Length | Start sector | End sector
---------------------------------------------------------
1 | 0:00.36 | 6:31.34 | 36 | 29394
2 | 6:31.70 | 1:04.60 | 29395 | 34254
3 | 7:36.55 | 4:43.18 | 34255 | 55497
4 | 12:19.73 | 0:30.00 | 55498 | 57747
5 | 12:49.73 | 1:02.55 | 57748 | 62452
6 | 13:52.53 | 2:02.30 | 62453 | 71632
7 | 15:55.08 | 3:50.02 | 71633 | 88884
8 | 19:45.10 | 0:39.69 | 88885 | 91878
9 | 20:25.04 | 5:03.15 | 91879 | 114618
10 | 25:28.19 | 0:45.21 | 114619 | 118014
11 | 26:13.40 | 1:27.05 | 118015 | 124544
12 | 27:40.45 | 3:06.70 | 124545 | 138564
13 | 30:47.40 | 1:14.33 | 138565 | 144147
14 | 32:01.73 | 2:38.22 | 144148 | 156019
15 | 34:40.20 | 0:32.47 | 156020 | 158466
16 | 35:12.67 | 3:08.48 | 158467 | 172614
17 | 38:21.40 | 4:40.61 | 172615 | 193675
18 | 43:02.26 | 4:45.35 | 193676 | 215085
19 | 47:47.61 | 6:57.51 | 215086 | 246411
20 | 54:45.37 | 4:49.03 | 246412 | 268089
21 | 59:34.40 | 8:37.57 | 268090 | 306921
22 | 68:12.22 | 2:03.40 | 306922 | 316186
23 | 70:15.62 | 1:31.26 | 316187 | 323037
24 | 71:47.13 | 2:58.21 | 323038 | 336408
Range status and errors
Selected range
Filename L:\04 NAAR RUTRACKER\Handel - Alexander's Feast, Ledger 1979 CD4.wav
Peak level 71.1 %
Extraction speed 3.1 X
Range quality 100.0 %
Test CRC EED886E1
Copy CRC EED886E1
Copy OK
No errors occurred
AccurateRip summary
Track 1 accurately ripped (confidence 1) [55DEBC4A] (AR v1)
Track 2 accurately ripped (confidence 1) [C87B972D] (AR v1)
Track 3 accurately ripped (confidence 1) [FA92AC5A] (AR v1)
Track 4 accurately ripped (confidence 1) [0DE16033] (AR v1)
Track 5 accurately ripped (confidence 1) [A3A762B9] (AR v1)
Track 6 accurately ripped (confidence 1) [A5BFC29A] (AR v1)
Track 7 accurately ripped (confidence 1) [BD6FD1A6] (AR v1)
Track 8 accurately ripped (confidence 1) [2591B51D] (AR v1)
Track 9 accurately ripped (confidence 1) [7C9D99B5] (AR v1)
Track 10 accurately ripped (confidence 1) [876F9A53] (AR v1)
Track 11 accurately ripped (confidence 1) [7FA444B8] (AR v1)
Track 12 accurately ripped (confidence 1) [3918E596] (AR v1)
Track 13 accurately ripped (confidence 1) [F47D8DBF] (AR v1)
Track 14 accurately ripped (confidence 1) [7BBFAA01] (AR v1)
Track 15 accurately ripped (confidence 1) [66D9644E] (AR v1)
Track 16 accurately ripped (confidence 1) [A018F838] (AR v1)
Track 17 accurately ripped (confidence 1) [AC520923] (AR v1)
Track 18 accurately ripped (confidence 1) [B556A651] (AR v1)
Track 19 accurately ripped (confidence 1) [4C8B3133] (AR v1)
Track 20 accurately ripped (confidence 1) [AB2544D3] (AR v1)
Track 21 accurately ripped (confidence 1) [7229B7A9] (AR v1)
Track 22 accurately ripped (confidence 1) [BA560575] (AR v1)
Track 23 accurately ripped (confidence 1) [2143EBBB] (AR v1)
Track 24 accurately ripped (confidence 1) [EA111E78] (AR v1)
All tracks accurately ripped
End of status report
---- CUETools DB Plugin V2.1.3
[CTDB TOCID: 84oJWLM1J3MJ5DhxKwZZveKqQZY-] disk not present in database, Submit result: discs with pregaps not supported in this protocol version
==== Log checksum D853E93207AD6B873A06648D6F1C26525395F1C6D1C50B015806528B4BC8ACCF ====

CD5

Exact Audio Copy V1.0 beta 3 from 29. August 2011
EAC extraction logfile from 1. December 2013, 13:27
Handel / Alexander's Feast - The Choice Of Hercules, Ledger CD5
Used drive : HL-DT-STDVD-RAM GSA-H55N Adapter: 0 ID: 0
Read mode : Secure
Utilize accurate stream : Yes
Defeat audio cache : Yes
Make use of C2 pointers : No
Read offset correction : 102
Overread into Lead-In and Lead-Out : No
Fill up missing offset samples with silence : Yes
Delete leading and trailing silent blocks : No
Null samples used in CRC calculations : Yes
Used interface : Native Win32 interface for Win NT & 2000
Used output format : User Defined Encoder
Selected bitrate : 768 kBit/s
Quality : High
Add ID3 tag : No
Command line compressor : C:\Program Files\Exact Audio Copy\FLAC\FLAC.EXE
Additional command line options : -6 -V -T "ARTIST=%artist%" -T "TITLE=%title%" -T "ALBUM=%albumtitle%" -T "DATE=%year%" -T "TRACKNUMBER=%tracknr%" -T "GENRE=%genre%" -T "COMMENT=%comment%" -T "BAND=%albuminterpret%" -T "ALBUMARTIST=%albuminterpret%" -T "COMPOSER=%composer%" %haslyrics%--tag-from-file=LYRICS="%lyricsfile%"%haslyrics% -T "DISCNUMBER=%cdnumber%" -T "TOTALDISCS=%totalcds%" -T "TOTALTRACKS=%numtracks%" %hascover%--picture="%coverfile%"%hascover% %source% -o %dest%
TOC of the extracted CD
Track | Start | Length | Start sector | End sector
---------------------------------------------------------
1 | 0:00.34 | 5:20.70 | 34 | 24103
2 | 5:21.29 | 5:04.27 | 24104 | 46930
3 | 10:25.56 | 0:30.66 | 46931 | 49246
4 | 10:56.47 | 3:54.35 | 49247 | 66831
5 | 14:51.07 | 0:38.10 | 66832 | 69691
6 | 15:29.17 | 2:48.33 | 69692 | 82324
7 | 18:17.50 | 3:04.65 | 82325 | 96189
8 | 21:22.40 | 1:08.27 | 96190 | 101316
9 | 22:30.67 | 1:48.21 | 101317 | 109437
10 | 24:19.13 | 1:57.32 | 109438 | 118244
11 | 26:16.45 | 2:28.31 | 118245 | 129375
12 | 28:45.01 | 2:30.73 | 129376 | 140698
13 | 31:15.74 | 0:28.68 | 140699 | 142866
14 | 31:44.67 | 6:15.18 | 142867 | 171009
15 | 38:00.10 | 0:18.06 | 171010 | 172365
16 | 38:18.16 | 2:43.36 | 172366 | 184626
17 | 41:01.52 | 0:20.19 | 184627 | 186145
18 | 41:21.71 | 2:25.53 | 186146 | 197073
19 | 43:47.49 | 0:37.24 | 197074 | 199872
20 | 44:24.73 | 2:34.49 | 199873 | 211471
21 | 46:59.47 | 0:38.05 | 211472 | 214326
22 | 47:37.52 | 3:41.16 | 214327 | 230917
23 | 51:18.68 | 2:22.36 | 230918 | 241603
24 | 53:41.29 | 0:15.71 | 241604 | 242799
25 | 53:57.25 | 2:22.46 | 242800 | 253495
26 | 56:19.71 | 0:42.71 | 253496 | 256716
27 | 57:02.67 | 1:36.54 | 256717 | 263970
28 | 58:39.46 | 2:18.09 | 263971 | 274329
29 | 60:57.55 | 0:17.25 | 274330 | 275629
30 | 61:15.05 | 5:15.51 | 275630 | 299305
31 | 66:30.56 | 5:29.74 | 299306 | 324054
Range status and errors
Selected range
Filename L:\04 NAAR RUTRACKER\Handel - Alexander's Feast - The Choice Of Hercules, Ledger CD5.wav
Peak level 100.0 %
Extraction speed 3.0 X
Range quality 100.0 %
Test CRC 56A25BFF
Copy CRC 56A25BFF
Copy OK
No errors occurred
AccurateRip summary
Track 1 accurately ripped (confidence 1) [50A276A9] (AR v2)
Track 2 accurately ripped (confidence 1) [06D288A4] (AR v2)
Track 3 accurately ripped (confidence 1) [0AA7A3B1] (AR v2)
Track 4 accurately ripped (confidence 1) [EF043B22] (AR v2)
Track 5 accurately ripped (confidence 1) [55D25B99] (AR v2)
Track 6 accurately ripped (confidence 1) [DDAF9901] (AR v2)
Track 7 accurately ripped (confidence 1) [AF021B76] (AR v2)
Track 8 not present in database
Track 9 not present in database
Track 10 not present in database
Track 11 not present in database
Track 12 not present in database
Track 13 not present in database
Track 14 not present in database
Track 15 not present in database
Track 16 not present in database
Track 17 not present in database
Track 18 not present in database
Track 19 not present in database
Track 20 not present in database
Track 21 not present in database
Track 22 not present in database
Track 23 not present in database
Track 24 not present in database
Track 25 not present in database
Track 26 not present in database
Track 27 not present in database
Track 28 not present in database
Track 29 not present in database
Track 30 not present in database
Track 31 not present in database
7 track(s) accuraat gelezen
24 track(s) niet aanwezig in de AccurateRip database
Some tracks could not be verified as accurate
End of status report
---- CUETools DB Plugin V2.1.3
[CTDB TOCID: 3oxGTk76eabjXBRxXaqS3UY7ZRk-] disk not present in database, Submit result: discs with pregaps not supported in this protocol version
==== Log checksum 4373A740DD1FED1770E180C847A9F9152342D3B654FEA062F4BB54B488647069 ====

Содержание индексной карты (.CUE)

CD1

REM GENRE Oratorio
REM DATE 1981
REM DISCID 14125D25
REM COMMENT "ExactAudioCopy v1.0b3"
PERFORMER "Handel"
TITLE "Saul, Ledger 1981 CD1"
FILE "Handel - Saul, Ledger 1981 CD1.flac" WAVE
TRACK 01 AUDIO
TITLE "Sinfonia - Allegro - Larghetto - Allegro - Andante Larghetto"
PERFORMER "Handel"
ISRC GBAYC0201634
FLAGS DCP
INDEX 00 00:00:00
INDEX 01 00:00:33
TRACK 02 AUDIO
TITLE "Chorus - How Excellent Thy Name, Oh Lord"
PERFORMER "Handel"
ISRC GBAYC0201635
FLAGS DCP
INDEX 01 12:53:39
TRACK 03 AUDIO
TITLE "Aria - An Infant Rais'd By Thy Command"
PERFORMER "Handel"
ISRC GBAYC0201636
FLAGS DCP
INDEX 01 16:11:06
TRACK 04 AUDIO
TITLE "Chorus - Along The Monster Atheist Strode"
PERFORMER "Handel"
ISRC GBAYC0201637
FLAGS DCP
INDEX 01 17:38:12
TRACK 05 AUDIO
TITLE "Chorus - The Youth Inspir'd By Thee, Oh Lord"
PERFORMER "Handel"
ISRC GBAYC0201638
FLAGS DCP
INDEX 01 18:51:72
TRACK 06 AUDIO
TITLE "Chorus - Hallelujah"
PERFORMER "Handel"
ISRC GBAYC0201639
FLAGS DCP
INDEX 01 22:16:72
TRACK 07 AUDIO
TITLE "Recitativo - He Comes, He Comes! - Michal"
PERFORMER "Handel"
ISRC GBAYC0201640
FLAGS DCP
INDEX 01 24:21:24
TRACK 08 AUDIO
TITLE "Aria - Oh God-Like Youth! - Michal"
PERFORMER "Handel"
ISRC GBAYC0201641
FLAGS DCP
INDEX 01 24:26:55
TRACK 09 AUDIO
TITLE "Recitativo - Behold, Oh King Abner - Saul, David"
PERFORMER "Handel"
ISRC GBAYC0201642
FLAGS DCP
INDEX 01 27:49:10
TRACK 10 AUDIO
TITLE "Aria - Oh King, You Favours With Delight David"
PERFORMER "Handel"
ISRC GBAYC0201643
FLAGS DCP
INDEX 01 28:47:15
TRACK 11 AUDIO
TITLE "Recitativo - Oh Early Piety! Jonathan"
PERFORMER "Handel"
ISRC GBAYC0201644
FLAGS DCP
INDEX 01 35:11:46
TRACK 12 AUDIO
TITLE "Aria - What Abject Thoughts A Prince Can Have! - Merab"
PERFORMER "Handel"
ISRC GBAYC0201645
FLAGS DCP
INDEX 01 35:41:60
TRACK 13 AUDIO
TITLE "Recitativo - Yet Think, Oh Whom This Honour You Bestow - Merab"
PERFORMER "Handel"
ISRC GBAYC0201646
FLAGS DCP
INDEX 01 38:10:45
TRACK 14 AUDIO
TITLE "Aria - Birth And Fortune I Despise! - Jonathan"
PERFORMER "Handel"
ISRC GBAYC0201647
FLAGS DCP
INDEX 01 38:29:31
TRACK 15 AUDIO
TITLE "Recitativo - Thou, Merab, First In Birth - Saul, Merab"
PERFORMER "Handel"
ISRC GBAYC0201648
FLAGS DCP
INDEX 01 43:40:09
TRACK 16 AUDIO
TITLE "Aria - My Soul Rejects The Thought With Scorn - Merab"
PERFORMER "Handel"
ISRC GBAYC0201649
FLAGS DCP
INDEX 01 44:04:48
TRACK 17 AUDIO
TITLE "Aria - See, See With What A Scornful Air - Michal"
PERFORMER "Handel"
ISRC GBAYC0201650
FLAGS DCP
INDEX 01 45:38:33
TRACK 18 AUDIO
TITLE "Ah! Lovely Youth - Michal"
PERFORMER "Handel"
ISRC GBAYC0201651
FLAGS DCP
INDEX 01 46:50:17
TRACK 19 AUDIO
TITLE "Sinfonia - Andante - Allegro"
PERFORMER "Handel"
ISRC GBAYC0201652
FLAGS DCP
INDEX 01 47:50:48
TRACK 20 AUDIO
TITLE "Recitativo - Already See The Daughters Of The Land - Michal"
PERFORMER "Handel"
ISRC GBAYC0201653
FLAGS DCP
INDEX 01 49:05:52
TRACK 21 AUDIO
TITLE "Chorus - Welcome, Welcome, Mighty King!"
PERFORMER "Handel"
ISRC GBAYC0201654
FLAGS DCP
INDEX 01 49:28:33
TRACK 22 AUDIO
TITLE "Accompagnato - What Do I Hear? - Saul"
PERFORMER "Handel"
ISRC GBAYC0201655
FLAGS DCP
INDEX 01 51:11:15
TRACK 23 AUDIO
TITLE "Chorus - David His Ten Thousands Slew"
PERFORMER "Handel"
ISRC GBAYC0201656
FLAGS DCP
INDEX 01 51:34:37
TRACK 24 AUDIO
TITLE "Accompagnato - To Him Ten Thousands - Saul"
PERFORMER "Handel"
ISRC GBAYC0201657
FLAGS DCP
INDEX 01 52:12:53
TRACK 25 AUDIO
TITLE "Aria - With Rage I Shall Burst - Saul"
PERFORMER "Handel"
ISRC GBAYC0201658
FLAGS DCP
INDEX 01 52:27:15
TRACK 26 AUDIO
TITLE "Recitativo - Imprudent Women! - Jonathan, Michal"
PERFORMER "Handel"
ISRC GBAYC0201659
FLAGS DCP
INDEX 01 53:50:63
TRACK 27 AUDIO
TITLE "Aria - Fell Rage And Black Despair Possess'd - Michal"
PERFORMER "Handel"
ISRC GBAYC0201660
FLAGS DCP
INDEX 01 54:47:00
TRACK 28 AUDIO
TITLE "Recitativo - Rack'd With Infernal Pains - Abner"
PERFORMER "Handel"
ISRC GBAYC0201661
FLAGS DCP
INDEX 01 58:11:45
TRACK 29 AUDIO
TITLE "Aria - Oh Lord, Whose Mercies Numberless - David"
PERFORMER "Handel"
ISRC GBAYC0201661
FLAGS DCP
INDEX 01 58:32:04
TRACK 30 AUDIO
TITLE "Sinfonia (Harp Solo)"
PERFORMER "Handel"
ISRC GBAYC0201662
FLAGS DCP
INDEX 01 62:33:19
TRACK 31 AUDIO
TITLE "Recitativo - 'Tis All In Vain - Jonathan"
PERFORMER "Handel"
ISRC GBAYC0201664
FLAGS DCP
INDEX 01 64:21:31
TRACK 32 AUDIO
TITLE "Aria - A Serpent, In My Bosom Warm'd - Saul"
PERFORMER "Handel"
ISRC GBAYC0201665
FLAGS DCP
INDEX 01 64:45:03
TRACK 33 AUDIO
TITLE "Recitativo - has He Escap'd My Rage? - Saul"
PERFORMER "Handel"
ISRC GBAYC0201666
FLAGS DCP
INDEX 01 66:54:07
TRACK 34 AUDIO
TITLE "Aria - Capricious Man, In Humour Lost - Merab"
PERFORMER "Handel"
ISRC GBAYC0201667
FLAGS DCP
INDEX 01 67:19:27
TRACK 35 AUDIO
TITLE "Accompagnato - Oh Filial Piety! Oh Sacred Friendship! - Jonathan"
PERFORMER "Handel"
ISRC GBAYC0201668
FLAGS DCP
INDEX 01 71:39:69
TRACK 36 AUDIO
TITLE "Aria - No, No Cruel Father, No! - Jonathan"
PERFORMER "Handel"
ISRC GBAYC0201668
FLAGS DCP
INDEX 01 73:30:39
TRACK 37 AUDIO
TITLE "Chorus - Preserve Him For The Glory Of Thy Name"
PERFORMER "Handel"
ISRC GBAYC0201669
FLAGS DCP
INDEX 01 75:18:40

CD2

REM GENRE Oratorio
REM DATE 1981
REM DISCID 4B0AA019
REM COMMENT "ExactAudioCopy v1.0b3"
PERFORMER "Handel"
TITLE "Saul, Ledger 1981 CD2"
FILE "Handel - Saul, Ledger 1981 CD2.flac" WAVE
TRACK 01 AUDIO
TITLE "Chorus - Envy! Eldest Born Of Hell!"
PERFORMER "Handel"
ISRC GBAYC0201672
FLAGS DCP
INDEX 00 00:00:00
INDEX 01 00:00:36
TRACK 02 AUDIO
TITLE "Recitativo - Ah! Dearest Friend - Jonathan"
PERFORMER "Handel"
ISRC GBAYC0201673
FLAGS DCP
INDEX 01 02:59:46
TRACK 03 AUDIO
TITLE "Aria - But Sooner Jordan's Stream - Jonathan"
PERFORMER "Handel"
ISRC GBAYC0201674
FLAGS DCP
INDEX 01 03:35:61
TRACK 04 AUDIO
TITLE "Recitativo - Oh Strange Vicissitude! - David, Jonathan"
PERFORMER "Handel"
ISRC GBAYC0201675
FLAGS DCP
INDEX 01 06:02:17
TRACK 05 AUDIO
TITLE "Aria - Such Haughty Beauties Rather Move - David"
PERFORMER "Handel"
ISRC GBAYC0201676
FLAGS DCP
INDEX 01 06:50:55
TRACK 06 AUDIO
TITLE "Recitativo - My Father Comes - Jonathan"
PERFORMER "Handel"
ISRC GBAYC0201677
FLAGS DCP
INDEX 01 12:07:55
TRACK 07 AUDIO
TITLE "Recitativo - Hast Thou Obey'd My Orders - Saul, Jonathan"
PERFORMER "Handel"
ISRC GBAYC0201678
FLAGS DCP
INDEX 01 12:22:52
TRACK 08 AUDIO
TITLE "Aria - Sin Not, Oh King, Against The Youth - Jonathan"
PERFORMER "Handel"
ISRC GBAYC0201679
FLAGS DCP
INDEX 01 13:01:22
TRACK 09 AUDIO
TITLE "Aria - As Great Jehovah Lives - Saul"
PERFORMER "Handel"
ISRC GBAYC0201680
FLAGS DCP
INDEX 01 15:02:64
TRACK 10 AUDIO
TITLE "Aria - From Cities Storm'd - Jonathan"
PERFORMER "Handel"
ISRC GBAYC0201681
FLAGS DCP
INDEX 01 16:52:58
TRACK 11 AUDIO
TITLE "Recitativo - Appear, My Friend - Jonathan, Saul"
PERFORMER "Handel"
ISRC GBAYC0201682
FLAGS DCP
INDEX 01 19:12:03
TRACK 12 AUDIO
TITLE "Aria - Your Words, Oh King - David"
PERFORMER "Handel"
ISRC GBAYC0201683
FLAGS DCP
INDEX 01 19:48:32
TRACK 13 AUDIO
TITLE "Recitativo - Yes, He Shall Wed My Daughter! Saul"
PERFORMER "Handel"
ISRC GBAYC0201684
FLAGS DCP
INDEX 01 21:01:74
TRACK 14 AUDIO
TITLE "Recitativo - A Father's Will Has Authoriz'd My Love - Michal"
PERFORMER "Handel"
ISRC GBAYC0201684
FLAGS DCP
INDEX 01 21:31:68
TRACK 15 AUDIO
TITLE "Duet - Oh Fairest Of Ten Thousand Fair - Michal, David"
PERFORMER "Handel"
ISRC GBAYC0201686
FLAGS DCP
INDEX 01 22:07:33
TRACK 16 AUDIO
TITLE "Chorus - Is There A Man"
PERFORMER "Handel"
ISRC GBAYC0201687
FLAGS DCP
INDEX 01 25:24:62
TRACK 17 AUDIO
TITLE "Sinfonia - Largo - Allegro"
PERFORMER "Handel"
ISRC GBAYC0201688
FLAGS DCP
INDEX 01 27:15:30
TRACK 18 AUDIO
TITLE "Recitativo - They Father Is As Cruel - David"
PERFORMER "Handel"
ISRC GBAYC0201689
FLAGS DCP
INDEX 01 32:36:40
TRACK 19 AUDIO
TITLE "Duet - At Persecution I Can Laugh - David, Michal"
PERFORMER "Handel"
ISRC GBAYC0201690
FLAGS DCP
INDEX 01 33:12:24
TRACK 20 AUDIO
TITLE "Recitativo - Whom Dost Thou Seek? - Michal, Doeg"
PERFORMER "Handel"
ISRC GBAYC0201691
FLAGS DCP
INDEX 01 34:42:64
TRACK 21 AUDIO
TITLE "Aria - No, No, Let The Guilty Tremble - Michal"
PERFORMER "Handel"
ISRC GBAYC0201691
FLAGS DCP
INDEX 01 35:23:70
TRACK 22 AUDIO
TITLE "Sinfonia - Allegro"
PERFORMER "Handel"
ISRC GBAYC0201693
FLAGS DCP
INDEX 01 37:28:11
TRACK 23 AUDIO
TITLE "Accompagnato - The Time At Length Is Come - Saul"
PERFORMER "Handel"
ISRC GBAYC0201694
FLAGS DCP
INDEX 01 38:52:09
TRACK 24 AUDIO
TITLE "Recitativo - Where Is The Son Of Jesse? - Saul, Jonathan"
PERFORMER "Handel"
ISRC GBAYC0201695
FLAGS DCP
INDEX 01 39:31:16
TRACK 25 AUDIO
TITLE "Chorus - O Fatal Consequence"
PERFORMER "Handel"
ISRC GBAYC0201696
FLAGS DCP
INDEX 01 40:45:06

CD3

REM GENRE Oratorio
REM DATE 1981
REM DISCID 070A3E12
REM COMMENT "ExactAudioCopy v1.0b3"
PERFORMER "Handel"
TITLE "Saul, Ledger 1981 CD3"
FILE "Handel - Saul, Ledger 1981 CD3.flac" WAVE
TRACK 01 AUDIO
TITLE "Accompagnato - Wretch That I Am! - Saul"
PERFORMER "Handel"
ISRC GBAYC0201697
FLAGS DCP
INDEX 01 00:00:00
TRACK 02 AUDIO
TITLE "Recitativo - 'Tis Said, Here Lives A Woman - Saul"
PERFORMER "Handel"
ISRC GBAYC0201698
FLAGS DCP
INDEX 01 02:33:06
TRACK 03 AUDIO
TITLE "Recitativo - With Me What Would'st Thou? - Witch, Saul"
PERFORMER "Handel"
ISRC GBAYC0201699
FLAGS DCP
INDEX 01 03:29:03
TRACK 04 AUDIO
TITLE "Aria - Infernal Spirits - Witch"
PERFORMER "Handel"
ISRC GBAYC0201700
FLAGS DCP
INDEX 01 04:18:71
TRACK 05 AUDIO
TITLE "Accompagnato - Why Hast Thou Forc'd Me - Samuel, Saul"
PERFORMER "Handel"
ISRC GBAYC0201700
FLAGS DCP
INDEX 01 06:13:13
TRACK 06 AUDIO
TITLE "Sinfonia - Allegro"
PERFORMER "Handel"
ISRC GBAYC0201702
FLAGS DCP
INDEX 01 09:57:38
TRACK 07 AUDIO
TITLE "Recitativo - Whence Comst Thou? - David, Amalekite"
PERFORMER "Handel"
ISRC GBAYC0201703
FLAGS DCP
INDEX 01 10:43:54
TRACK 08 AUDIO
TITLE "Aria - Impious Wretch - David"
PERFORMER "Handel"
ISRC GBAYC0201704
FLAGS DCP
INDEX 01 11:50:13
TRACK 09 AUDIO
TITLE "Sinfonia - Grave (Dead March)"
PERFORMER "Handel"
ISRC GBAYC0201705
FLAGS DCP
INDEX 01 13:46:35
TRACK 10 AUDIO
TITLE "Chorus - Mourn, Israel"
PERFORMER "Handel"
ISRC GBAYC0201706
FLAGS DCP
INDEX 01 17:54:37
TRACK 11 AUDIO
TITLE "Aria - Oh Let is Not In Gath Be Heard"
PERFORMER "Handel"
ISRC GBAYC0201707
FLAGS DCP
INDEX 01 21:27:19
TRACK 12 AUDIO
TITLE "Aria - From This Unhappy Day"
PERFORMER "Handel"
ISRC GBAYC0201707
FLAGS DCP
INDEX 01 24:15:64
TRACK 13 AUDIO
TITLE "Aria - Brave Jonathan"
PERFORMER "Handel"
ISRC GBAYC0201709
FLAGS DCP
INDEX 01 27:07:11
TRACK 14 AUDIO
TITLE "Chorus - Eagles Were Not So Swift As They"
PERFORMER "Handel"
ISRC GBAYC0201710
FLAGS DCP
INDEX 01 27:37:35
TRACK 15 AUDIO
TITLE "Aria - In Sweetest Harmony They Liv'd"
PERFORMER "Handel"
ISRC GBAYC0201711
FLAGS DCP
INDEX 01 28:03:33
TRACK 16 AUDIO
TITLE "Solo, Chorus - Oh Fatal Day! - David"
PERFORMER "Handel"
ISRC GBAYC0201712
FLAGS DCP
INDEX 01 32:31:36
TRACK 17 AUDIO
TITLE "Recitativo - Ye Men Of Judah, Weep No More! - Abner"
PERFORMER "Handel"
ISRC GBAYC0201713
FLAGS DCP
INDEX 01 36:36:09
TRACK 18 AUDIO
TITLE "Chorus - Gird On They Sword"
PERFORMER "Handel"
ISRC GBAYC0201714
FLAGS DCP
INDEX 01 37:09:66

CD4

REM GENRE Oratorio
REM DATE 1979
REM DISCID 6E118518
REM COMMENT "ExactAudioCopy v1.0b3"
PERFORMER "Handel"
TITLE "Alexander's Feast, Ledger 1979 CD4"
FILE "Handel - Alexander's Feast, Ledger 1979 CD4.flac" WAVE
TRACK 01 AUDIO
TITLE "Part 1- Overture"
PERFORMER "Handel"
ISRC GBAYC0201157
FLAGS DCP
INDEX 00 00:00:00
INDEX 01 00:00:36
TRACK 02 AUDIO
TITLE "Recitative - Twas At The Royal Feast"
PERFORMER "Handel"
ISRC GBAYC0201158
FLAGS DCP
INDEX 00 06:28:16
INDEX 01 06:31:70
TRACK 03 AUDIO
TITLE "Air And Chorus - Happy, Happy, Happy Pair !"
PERFORMER "Handel"
ISRC GBAYC0201159
FLAGS DCP
INDEX 00 07:33:01
INDEX 01 07:36:55
TRACK 04 AUDIO
TITLE "Recitative - Timotheus Placed On High"
PERFORMER "Handel"
ISRC GBAYC0201160
FLAGS DCP
INDEX 00 12:16:19
INDEX 01 12:19:73
TRACK 05 AUDIO
TITLE "Accompanied Recitative - The Song Began From Jove"
PERFORMER "Handel"
ISRC GBAYC0201161
FLAGS DCP
INDEX 00 12:46:19
INDEX 01 12:49:73
TRACK 06 AUDIO
TITLE "Chorus - The Listening Crowd Admired The Lovly Sound !"
PERFORMER "Handel"
ISRC GBAYC0201162
FLAGS DCP
INDEX 00 13:48:74
INDEX 01 13:52:53
TRACK 07 AUDIO
TITLE "Air - With Ravish'd Ears"
PERFORMER "Handel"
ISRC GBAYC0201163
FLAGS DCP
INDEX 00 15:51:29
INDEX 01 15:55:08
TRACK 08 AUDIO
TITLE "Recitative - The Praise Of Bacchus Then"
PERFORMER "Handel"
ISRC GBAYC0201164
FLAGS DCP
INDEX 00 19:41:31
INDEX 01 19:45:10
TRACK 09 AUDIO
TITLE "Air And Chorus - Bacchus, Ever Fair And Young"
PERFORMER "Handel"
ISRC GBAYC0201165
FLAGS DCP
INDEX 00 20:21:25
INDEX 01 20:25:04
TRACK 10 AUDIO
TITLE "Recitative - Soothed With The Sound, The King Grew Vain"
PERFORMER "Handel"
ISRC GBAYC0201166
FLAGS DCP
INDEX 00 25:24:40
INDEX 01 25:28:19
TRACK 11 AUDIO
TITLE "Accompanied Recitative - He Chose A Mournful Muse"
PERFORMER "Handel"
ISRC GBAYC0201167
FLAGS DCP
INDEX 00 26:09:61
INDEX 01 26:13:40
TRACK 12 AUDIO
TITLE "Air - He Sung Darius, Great And Good"
PERFORMER "Handel"
ISRC GBAYC0201168
FLAGS DCP
INDEX 00 27:36:66
INDEX 01 27:40:45
TRACK 13 AUDIO
TITLE "Accompaied Recitative - With Downcast Looks The Joyless Victor Sate"
PERFORMER "Handel"
ISRC GBAYC0201169
FLAGS DCP
INDEX 00 30:43:61
INDEX 01 30:47:40
TRACK 14 AUDIO
TITLE "Chorus - Behold Darius Great And Good"
PERFORMER "Handel"
ISRC GBAYC0201170
FLAGS DCP
INDEX 00 31:58:19
INDEX 01 32:01:73
TRACK 15 AUDIO
TITLE "Recitative - The Mighty Master Smiled To See"
PERFORMER "Handel"
ISRC GBAYC0201171
FLAGS DCP
INDEX 00 34:36:41
INDEX 01 34:40:20
TRACK 16 AUDIO
TITLE "Arioso - Softly Sweet In Lydian Measures"
PERFORMER "Handel"
ISRC GBAYC0201172
FLAGS DCP
INDEX 00 35:09:13
INDEX 01 35:12:67
TRACK 17 AUDIO
TITLE "Air - War, He Sung, Is Toil And Trouble"
PERFORMER "Handel"
ISRC GBAYC0201173
FLAGS DCP
INDEX 00 38:17:61
INDEX 01 38:21:40
TRACK 18 AUDIO
TITLE "Chorus - The Many Rend The Skies With Loud Applause"
PERFORMER "Handel"
ISRC GBAYC0201174
FLAGS DCP
INDEX 00 42:58:47
INDEX 01 43:02:26
TRACK 19 AUDIO
TITLE "Air - The Prince, Unable To Conceal His Pain"
PERFORMER "Handel"
ISRC GBAYC0201175
FLAGS DCP
INDEX 00 47:44:07
INDEX 01 47:47:61
TRACK 20 AUDIO
TITLE "Chorus [Da Capo] - The Many Rend The Skies With Loud Applause"
PERFORMER "Handel"
ISRC GBAYC0201176
FLAGS DCP
INDEX 00 54:41:58
INDEX 01 54:45:37
TRACK 21 AUDIO
TITLE "Part 2- Accompanied Recitative With Chorus - Now Strike The Golden Lyre Again"
PERFORMER "Handel"
ISRC GBAYC0201178
FLAGS DCP
INDEX 00 59:30:61
INDEX 01 59:34:40
TRACK 22 AUDIO
TITLE "Air - Revenge, Revenge, Timotheus Cries"
PERFORMER "Handel"
ISRC GBAYC0201179
FLAGS DCP
INDEX 00 68:08:43
INDEX 01 68:12:22
TRACK 23 AUDIO
TITLE "Accompanied Recitative - Give The Vengeance Due"
PERFORMER "Handel"
ISRC GBAYC0201180
FLAGS DCP
INDEX 00 70:12:08
INDEX 01 70:15:62
TRACK 24 AUDIO
TITLE "Air - The Princes Applaud With A Furious Joy"
PERFORMER "Handel"
ISRC GBAYC0201181
FLAGS DCP
INDEX 00 71:43:34
INDEX 01 71:47:13

CD5

REM GENRE Oratorio
REM DATE 1979
REM DISCID E510E01F
REM COMMENT "ExactAudioCopy v1.0b3"
CATALOG 0724356209824
PERFORMER "Handel"
TITLE "Alexander's Feast - The Choice Of Hercules, Ledger CD5"
FILE "Handel - Alexander's Feast - The Choice Of Hercules, Ledger CD5.flac" WAVE
TRACK 01 AUDIO
TITLE "Air - Thais Led The Way"
PERFORMER "Handel"
ISRC GBAYC0201182
INDEX 00 00:00:00
INDEX 01 00:00:34
TRACK 02 AUDIO
TITLE "Accompanied Recitative - Thus, Long Ago"
PERFORMER "Handel"
ISRC GBAYC0201183
INDEX 00 05:17:18
INDEX 01 05:21:29
TRACK 03 AUDIO
TITLE "Recitativo - Let Old Timotheus Yield The Prize"
PERFORMER "Handel"
ISRC GBAYC0201184
INDEX 00 10:22:02
INDEX 01 10:25:56
TRACK 04 AUDIO
TITLE "Soli & Chorus - Let Old Timotheus Yield The Prize"
PERFORMER "Handel"
ISRC GBAYC0201185
INDEX 00 10:52:68
INDEX 01 10:56:47
TRACK 05 AUDIO
TITLE "Recitative - Your Voices Tune, And Raise Them High"
PERFORMER "Handel"
ISRC GBAYC0201186
INDEX 00 14:47:28
INDEX 01 14:51:07
TRACK 06 AUDIO
TITLE "Duet - Let's Imitate Her Notes Above !"
PERFORMER "Handel"
ISRC GBAYC0201187
INDEX 00 15:25:38
INDEX 01 15:29:17
TRACK 07 AUDIO
TITLE "Chorus - Your Voices Tune, And Raise Them High"
PERFORMER "Handel"
ISRC GBAYC0201188
INDEX 00 18:13:71
INDEX 01 18:17:50
TRACK 08 AUDIO
TITLE "The Choice Of Hercules- Sinfonia"
PERFORMER "Handel"
ISRC GBAYD0201119
INDEX 00 21:18:61
INDEX 01 21:22:40
TRACK 09 AUDIO
TITLE "Recitativo - See, Hercules!"
PERFORMER "Handel"
ISRC GBAYD0201120
INDEX 00 22:27:13
INDEX 01 22:30:67
TRACK 10 AUDIO
TITLE "Aria - Come, Blooming Boy"
PERFORMER "Handel"
ISRC GBAYD0201120
INDEX 00 24:15:34
INDEX 01 24:19:13
TRACK 11 AUDIO
TITLE "Aria - There The Brisk Sparkling Nectar Drain"
PERFORMER "Handel"
ISRC GBAYD0201121
INDEX 00 26:12:66
INDEX 01 26:16:45
TRACK 12 AUDIO
TITLE "Aria & Chorus - While For Thy Arms"
PERFORMER "Handel"
ISRC GBAYD0201123
INDEX 00 28:41:22
INDEX 01 28:45:01
TRACK 13 AUDIO
TITLE "Recitativo - Away, Mistaken Wretch!"
PERFORMER "Handel"
ISRC GBAYD0201124
INDEX 00 31:12:20
INDEX 01 31:15:74
TRACK 14 AUDIO
TITLE "Aria - This Manly Youth's Exalted Mind"
PERFORMER "Handel"
ISRC GBAYD0201125
INDEX 00 31:41:13
INDEX 01 31:44:67
TRACK 15 AUDIO
TITLE "Recitativo - Rise, Youth! Exalt Thyself And Me"
PERFORMER "Handel"
ISRC GBAYD0201126
INDEX 00 37:56:31
INDEX 01 38:00:10
TRACK 16 AUDIO
TITLE "Aria - Go, Assert Thy Heav'nly Race"
PERFORMER "Handel"
ISRC GBAYD0201127
INDEX 00 38:14:37
INDEX 01 38:18:16
TRACK 17 AUDIO
TITLE "Recitativo - In Peace, In War"
PERFORMER "Handel"
ISRC GBAYD0201128
INDEX 00 40:57:73
INDEX 01 41:01:52
TRACK 18 AUDIO
TITLE "Chorus - So Shalt Thou Gain Immortal Praise"
PERFORMER "Handel"
ISRC GBAYD0201128
INDEX 00 41:18:17
INDEX 01 41:21:71
TRACK 19 AUDIO
TITLE "Recitativo - Hear'st Thou, What Dangers"
PERFORMER "Handel"
ISRC GBAYD0201130
INDEX 00 43:43:70
INDEX 01 43:47:49
TRACK 20 AUDIO
TITLE "Aria & Chorus - Turn Thee, Youth, To Joy And Love"
PERFORMER "Handel"
ISRC GBAYD0201131
INDEX 00 44:21:19
INDEX 01 44:24:73
TRACK 21 AUDIO
TITLE "Recitativo - Short Is My Way - Oh Cease, Enchanting Siren!"
PERFORMER "Handel"
ISRC GBAYD0201132
INDEX 00 46:55:68
INDEX 01 46:59:47
TRACK 22 AUDIO
TITLE "Aria - Yet Can I Hear That Dulcet Lay"
PERFORMER "Handel"
ISRC GBAYD0201133
INDEX 00 47:33:73
INDEX 01 47:37:52
TRACK 23 AUDIO
TITLE "Aria - Enjoy The Sweet Elysian Grove Attendant On"
PERFORMER "Handel"
ISRC GBAYD0201134
INDEX 00 51:15:14
INDEX 01 51:18:68
TRACK 24 AUDIO
TITLE "Recitativo - Oh! Whither, Reason, Dost Thou Fly-"
PERFORMER "Handel"
ISRC GBAYD0201135
INDEX 00 53:37:50
INDEX 01 53:41:29
TRACK 25 AUDIO
TITLE "Trio - Where Shall I Go-"
PERFORMER "Handel"
ISRC GBAYD0201136
INDEX 00 53:53:46
INDEX 01 53:57:25
TRACK 26 AUDIO
TITLE "Recitativo - Mount, Mount The Steep Ascent!"
PERFORMER "Handel"
ISRC GBAYD0201137
INDEX 00 56:16:17
INDEX 01 56:19:71
TRACK 27 AUDIO
TITLE "Aria - Mount, Mount The Steep Ascent!"
PERFORMER "Handel"
ISRC GBAYD0201138
INDEX 00 56:59:13
INDEX 01 57:02:67
TRACK 28 AUDIO
TITLE "Chorus - Arise, Arise!"
PERFORMER "Handel"
ISRC GBAYD0201139
INDEX 00 58:35:67
INDEX 01 58:39:46
TRACK 29 AUDIO
TITLE "Recitativo - The Sounds Breathe Fire Celestial"
PERFORMER "Handel"
ISRC GBAYD0201140
INDEX 00 60:54:01
INDEX 01 60:57:55
TRACK 30 AUDIO
TITLE "Aria - Lead, Goddess, Lead The Way!"
PERFORMER "Handel"
ISRC GBAYD0201141
INDEX 00 61:11:26
INDEX 01 61:15:05
TRACK 31 AUDIO
TITLE "Chorus - Virtue Will Place Thee"
PERFORMER "Handel"
ISRC GBAYD0201142
INDEX 00 66:27:02
INDEX 01 66:30:56
Доп. информация:

About the boxset

This collection contains three splendid example of Handel's choral music - Saul, Alexander's Feast and The Choice of Hercules.
All three are marvellous in their way, and are full of joy and sorrow.
The performances are uniformly excellent.
They date from Philip Ledger's time as director of music at King's College, Cambridge.
The choir feature on all three items, with the English Chamber Orchestra on Saul and Alexander's Feast, and Academy of St Martin-in-the-Fields on The Choice of Hercules.
Former King's choral scholar Robert Tear is a soloist on all three, along with other distinguished performers like Heather Harper and Thomas Allen.
Under Ledger, the King's choir take on a bright, slightly hard edged tone.
Ledger's empahsis on intonation, ensemble and especially diction means they are always relaible performers on any recording, and they do themselves proud on these recordings.
The choir is lively, exciting and sensitive.
The orchestras and soloists also give strong account of themselves.
This collection contains three splendid example of Handel's choral music - Saul, Alexander's Feast and The Choice of Hercules.
All three are marvellous in their way, and are full of joy and sorrow.

Saul (HWV 53)

The oratorio of "Saul" (HWV 53) is a dramatic oratorio in three acts written by Handel in 1738 with a libretto by Charles Jennens.
Taken from the First Book of Samuel, the story of Saul focuses on the first king of Israel's relationship with his eventual successor, David; one which turns from admiration to envy and hatred, ultimately leading to the downfall of the eponymous monarch.
The story closely follows the Biblical narrative of the relations between David and Saul.
The overture is the longest of all the Handel introductions.
It is in four movements, the first an Allegro, the second a Largo, in which the organ is used as a solo instrument, the third an Allegro, and the fourth a Minuetto.
It is an exceedingly graceful and delicate prelude, and makes a fitting introduction to the dramatic story which follows.
The characters introduced are Saul, King of Israel; Jonathan, his son; Abner, captain of the host; David; the apparition of Samuel; Doeg, a messenger; an Amalekite; Abiathar, Merab, and Michal, daughters of Saul; the Witch of Endor; and the Israelites.
It includes the famous "Dead March", a funeral anthem for Saul and his son Jonathan, and some of the composer's most dramatic choral pieces.
Saul was first performed at the King's Theatre in London on January 16, 1739.
The work was a success at its London premiere and was revived by Handel in subsequent seasons.

Alexander's Feast (HWV 75)

Alexander's Feast (HWV 75) is an ode with music by George Frideric Handel set to a libretto by Newburgh Hamilton.
Hamilton adapted his libretto from John Dryden's ode Alexander's Feast, or the Power of Music (1697) which had been written to celebrate Saint Cecilia's Day.
Jeremiah Clarke (whose score is now lost) set the original ode to music.
Handel composed the music in January 1736, and the work received its premiere at the Covent Garden Theatre, London, on 19 February 1736.
In its original form it contained three concertos: a concerto in B flat major in 3 movements for "Harp, Lute, Lyrichord and other Instruments" HWV 294 for performance after the recitative Timotheus, plac'd on high in Part I; a concerto grosso in C major in 4 movements for oboes, bassoon and strings, now known as the "Concerto in Alexander's Feast" HWV 318, performed between Parts I and II; and an organ concerto HWV 289 in G minor and major in 4 movements for chamber organ, oboes, bassoon and strings performed after the chorus Let old Timotheus yield the prize in Part II.
The organ concerto and harp concerto were published in 1738 by John Walsh as the first and last of the Handel organ concertos Op.4.
Handel revised the music for performances in 1739, 1742 and 1751. Donald Burrows has discussed Handel's revisions to the score.
The work describes a banquet held by Alexander the Great and his mistress Thaïs in the captured Persian city of Persepolis, during which the musician Timotheus sings and plays his lyre, arousing various moods in Alexander until he is finally incited to burn the city down in revenge for his dead Greek soldiers.
The piece was a great success and it encouraged Handel to make the transition from writing Italian operas to English choral works.
The soloists at the premiere were the sopranos Anna Maria Strada and Cecilia Young, the tenor John Beard, and a bass called Erard (first name unknown).

The Choice of Hercules (HWV 69)

The Choice of Hercules (HWV 69) is an oratorio in one act (three scenes) by George Frideric Handel.
Handel produced the score between 28 June and 5 July 1750.
The first performance was given on 1 March 1751 at the Covent Garden Theatre, London.
The libretto is derived from the poem (1743) of Robert Lowth but revised, probably, by Thomas Morell.
The story centres on the Choice of Hercules, in which the youthful Hercules must decide between the paths of pleasure and virtue.
These are represented by two women who present their various arguments to Hercules, and his confusion is articulated in the trio Where shall I go?.
The classical myth of "the choice of Hercules," as told by the 5th-century Athenian sophist Prodicus (Xenophon Memorabilia 2.1.21-34), anticipates that Hercules will choose to follow Virtue's path. And, indeed, the Chorus sings ( Chorus, 24) that "Virtue will place thee in that blest abode, Crown'd with immortal youth, Among the gods a god!"
The character of The Attendant on Pleasure is introduced into this version of the Choice of Hercules and complicates Hercules' choice (Air, 16).
A typical performance takes almost 50 minutes.
The work includes the notable aria Yet can I hear that dulcet lay.
[teatrix.ru].t17935.torrent 
Торрент: Зарегистрирован [ 2016-03-17 00:47 ] · 67DF088DB1B2C736097057DACB2EDA29F180F43C

Скачать .torrent

Скачать

16 KB

Статус: проверено
Скачан: 0 раз
Размер: 1.39 GB
terms.php



Быстрый ответ

Имя:

      
Для отправки сообщений необходимо включить JavaScript
Показать сообщения:    

Текущее время: 04-Дек 04:58

Часовой пояс: UTC + 3


Вы можете начинать темы
Вы можете отвечать на сообщения
Вы не можете редактировать свои сообщения
Вы не можете удалять свои сообщения
Вы не можете голосовать в опросах
Вы не можете прикреплять файлы к сообщениям
Вы можете скачивать файлы